Читаем блокадную книгу (Александр Сокуров) [2009, Россия, документальный, DVDRip]


Статистика раздачи [Обновить пиров]
Размер:  703 MB   |    Зарегистрирован:  1 год 1 месяц   |    Скачан:  0 раз

Полного источника не было: Никогда

 
   
 
 
 

[Цитировать]

Читаем блокадную книгу
Страна: Россия
Жанр: документальный
Год выпуска: 2009
Продолжительность: 01:36:13
Перевод: Не требуется
Cубтитры: нет
Оригинальная аудиодорожка: нет
Режиссер: Александр Сокуров
Описание: Описание: Несколько десятков петербуржцев разных профессий и возрастов перед камерой в телестудии читают «Блокадную книгу» Даниила Гранина и Алеся Адамовича: каждый по одному-двум отрывкам. В числе читающих и известные лица, например Олег Басилашвили и Лариса Малеванная. Читающие почти не вкладывают своих эмоций в прочтение, так как отрывки сами по себе содержат то, что трогает зрителя. Постепенно напряжение и тяжесть от слышимого и представляемого нарастает и близится к финалу — освобождению города от блокады огромной ценой.
Картина заканчивается зимней Дворцовой площадью современного Санкт-Петербурга, на которой происходит светотехническое шоу «Венок памяти» авторства самого Сокурова: огромные лучи, похожие на световые столбы противовоздушной обороны, работавшие здесь же во времена блокады, взмывают в чёрное зимнее небо Петербурга. В этот момент, после долгого звучания симфонии, вступает голос самого Александра Сокурова, подводящего свою черту: «История никуда не уходит, она рядом».

В фильме снимались

Александр Сокуров, кинорежиссёр, народный артист России
Майя Клименко, житель блокадного Ленинграда
Любовь Михайлова, инженер по гражданскому строительству
Юлия Минутина, координатор движения «Живой город»
Сергей Барковский, актёр, заслуженный артист России
Надежда Гусарова, журналист
Иван Краско, актёр, народный артист России
Михаил Черняк, актёр, режиссёр
Сергей Скороходов, певец, солист Мариинского театра
Евдокия Тимофеева, ст. научный сотрудник Музея политической истории России
Артем Суслов, поэт
Елена Штопфен, поэтесса
Виктор Костецкий, актёр, народный артист России
Михаил Захаров, курсант Военной Академии тыла и транспорта
Римма Жеглова, житель блокадного Ленинграда
Ольга Антонова, актриса, народная артистка России
Александр Сенин, ведущий FM TV
Михаил Морозов, актёр, заслуженный артист России
Леонид Мозговой, актёр, заслуженный артист России
Андрей Кузьмин, активист движения «Живой город»
Александр Глущенко, менеджер
Михаил Микишатьев, архитектор
Владимир Кудрин, яхтенный капитан
Татьяна Орлова, педагог
Владимир Рецептер, актёр, режиссёр, педагог, народный артист России
Лариса Малеванная, актриса, народная артистка России
Анастасия Цылина, ученица 11 класса 27 школы
Сергей Лосев, актёр, заслуженный артист России
Наташа Серова, ученица 11 класса
Лев Неймышев, первоклассник 56 гимназии
Валерий Кухарешин, актёр, народный артист России
Алексей Викульев, суворовец, 2 курс, 4 рота
Александр Потапов, курсант Военной Академии тыла и транспорта
Михаил Словачевский, музыкант, виолончелист, заслуженный артист России
Борис Мошковский, суворовец, 2 курс, 4 рота
Татьяна Мошкова, студентка Университета кино и телевидения
Марина Мошкова, студентка Университета кино и телевидения
Кирилл Авдеев, старший лейтенант
Альберт Саральп, владелец галереи современного искусства
Вадим Андрейченко, подполковник ВС, зам. начальника по воспитательной работе ГУ МЧС РФ
Евгений Анищенко, суворовец, 2 курс, 4 рота
Александр Потапов, курсант Военной академии тыла и транспорта
Наталья Боровкова, актриса
Елена Соболева, актриса
Анна Михайлова, студентка философского факультета СПбГУ
Владимир Рецептер, актёр, режиссёр, педагог, народный артист России
Сергей Скороходов, певец, солист Мариинского театра
Мария Симонова, житель блокадного Ленинграда, член общества «Мемориал»
Борис Аверин, доктор филологических наук, профессор СПбГУ
Владимир Словачевский, музыкант, виолончелист, заслуженный артист России
Игорь Мосин, журналист
Лилиан Наврозашвили, актриса
Руслан Котенко, режиссёр
Родион Приходько, актёр
Григорий Горбунов, полковник ВС, начальник пресс-центра МЧС по СЗФО
Михаил Захаров, курсант Военной Академии тыла и транспорта
Александр Потапов, курсант Военной Академии тыла и транспорта
Владимир Словачевский, музыкант, виолончелист, заслуженный артист России
Юрий Симонов, житель блокадного Ленинграда, член общества «Мемориал»
Ксения Скачкова, продавец
Алексей Янковский, кинорежиссёр
Ксения Ширина, фотограф
Олеся Сурикова, семиклассница
Алексей Неймышев, топ-менеджер
Олег Басилашвили, актёр, народный артист России
Михаил Гапонов, диджей
Валерий Кухарешин, актёр, народный артист России
Петр Семак, актёр, народный артист России
Сэмпл: http://rusfolder.com/39653105
Качество видео: DVDRip
Формат видео: AVI
Видео: 688x512 (1.34:1), 25 fps, XviD build 50 ~819 kbps avg, 0.09 bit/pixel
Аудио: 48 kHz, MPEG Layer 3, 2 ch, ~192.00 kbps avg

MediaInfo

General
Complete name : M:\Читаем Блокадную книгу - 700.avi
Format : AVI
Format/Info : Audio Video Interleave
File size : 703 MiB
Duration : 1h 36mn
Overall bit rate : 1 022 Kbps
Writing application : VirtualDubMod 1.5.10.3 | www.virtualdub-fr.org || (build 2550/release)
Writing library : VirtualDubMod build 2550/release
Video
ID : 0
Format : MPEG-4 Visual
Format profile : Advanced Simple@L5
Format settings, BVOP : Yes
Format settings, QPel : No
Format settings, GMC : No warppoints
Format settings, Matrix : Default (MPEG)
Codec ID : XVID
Codec ID/Hint : XviD
Duration : 1h 36mn
Bit rate : 820 Kbps
Width : 688 pixels
Height : 512 pixels
Display aspect ratio : 4:3
Frame rate : 25.000 fps
Resolution : 8 bits
Colorimetry : 4:2:0
Scan type : Progressive
Bits/(Pixel*Frame) : 0.093
Stream size : 564 MiB (80%)
Writing library : XviD 1.2.1 (UTC 2008-12-04)
Audio
ID : 1
Format : MPEG Audio
Format version : Version 1
Format profile : Layer 3
Codec ID : 55
Codec ID/Hint : MP3
Duration : 1h 36mn
Bit rate mode : Constant
Bit rate : 192 Kbps
Channel(s) : 2 channels
Sampling rate : 48.0 KHz
Stream size : 132 MiB (19%)
Alignment : Aligned on interleaves
Interleave, duration : 40 ms (1.00 video frame)
Interleave, preload duration : 504 ms
Writing library : LAME3.98r
Encoding settings : -m s -V 4 -q 2 -lowpass 18.6 -b 192

Скриншот c названием фильма

Скриншоты

[teatrix.ru].t4435.torrent 
Торрент: Зарегистрирован [ 2015-10-08 00:27 ] · 94BB5A824E6D783D8E6563F8AD303BB9CA50D791

Скачать .torrent

Скачать

28 KB

Статус: проверено
Скачан: 0 раз
Размер: 703 MB
terms.php



Быстрый ответ

Имя:

      
Для отправки сообщений необходимо включить JavaScript
Показать сообщения:    

Текущее время: 03-Дек 03:17

Часовой пояс: UTC + 3


Вы можете начинать темы
Вы можете отвечать на сообщения
Вы не можете редактировать свои сообщения
Вы не можете удалять свои сообщения
Вы не можете голосовать в опросах
Вы не можете прикреплять файлы к сообщениям
Вы можете скачивать файлы