Вопрос вкусов с Грейсоном Перри / All in the Best Possible Taste with Grayson Perry (Нил Кромби / Neil Crombie) [2012, Великобритания, документальный, культурологический, DVB] DVO (Селена Интернешнл)


Статистика раздачи [Обновить пиров]
Размер:  2.13 GB   |    Зарегистрирован:  1 год 1 месяц   |    Скачан:  0 раз

Полного источника не было: Никогда

 
   
 
 
 

[Цитировать]

Вопрос вкусов с Грейсоном Перри
All in the Best Possible Taste with Grayson Perry- Страна: Великобритания
Жанр: документальный, культурологический
Год выпуска: 2012
Продолжительность: 02:19:11 (00:45:30 + 00:46:51 + 00:46:50)Перевод: Профессиональный (двухголосый закадровый) (Кинокомпания "Селена Интернешнл" по заказу канала "24ДОК")
Cубтитры: нет
Оригинальная аудиодорожка: нет
Режиссер: Нил Кромби / Neil Crombie
В ролях: Грейсон Перри / Grayson Perry, Шон Фостер-Конли / Shaun Foster-Conley
Описание: Грейсона Перри, одного из ведущих современных художников Великобритании, лауреата премии Тернера (2003), всегда занимал вопрос вкуса – почему люди покупают те или иные вещи, почему они носят одежду, которую носят, и что они пытаются сказать окружающему миру, делая этот выбор.
В этом фильме Перри погружается в жизнь трех социальных классов Британии и пытается понять их вкусы. В ходе этого антропологического исследования художнику предстоит жить в трех "вкусовых племенах": рабочий класс, средний класс и аристократия. По итогам своего исследования он создает серию гобеленов, воплощающих вкусы британцев. (анонс канала "24ДОК")-Творчество художника-трансвестита Грейсона Перри критики характеризуют как "глас народа из ада". Перри специализируется на создании керамических ваз, которые очень своеобразно украшает. Все они расписаны сценами насилия и смерти, в том числе детей. Об отнюдь не фарфоровом драматизме искусства Перри свидетельствуют названия его произведений: "Мы нашли тело вашего ребенка", "Я был озлобленным представителем рабочего класса", "Я ненавижу"... Темой его работ послужили полные горькой иронии автобиографические воспоминания о невеселом детстве в провинциальном Эссексе, где ему приходилось жить с отчимом, а отношения с матерью были сложными.-Доп. информация: "24ДОК". 3-х-серийный телефильм.

Список выпусков/серий

Эпизод 1: Вкусы рабочего класса / Working Class Taste
Эпизод 2: Вкусы среднего класса / Middle Class Taste
Эпизод 3: Вкусы аристократии / Upper Class Taste
Награды: награда BAFTA TV Awards 2013 в категории "Лучший фильм, основанный на фактах"; приз Grierson British Documentary awards 2013 лучшему рассказчику (Grayson Perry).
http://www.imdb.com/title/tt2183112/
Сэмпл: http://multi-up.com/944385
Качество видео: DVB-S
Формат видео: MPEG-PS (См. при проблемах с просмотром видео)
Видео: MPEG Video 2, 720x576@768x576 (4:3), 25 fps, ~2053 kbps avg, 0.198 bit/pixel
Аудио: 48 kHz, MPEG Audio 2, 2 ch, ~192.00 kbps avg

MediaInfo

Полное имя : H:\My Torrents\[apreder]All_in_the_Best_Possible_Taste_with_Grayson_Perry(2012)DVB\[apreder]All_in_the_Best_Possible_Taste_ep.1(2012)DVB.mpgФормат : MPEG-PSРазмер файла : 747 МбайтПродолжительность : 45 м.Режим общего битрейта : ПеременныйОбщий поток : 2291 Кбит/сек
ВидеоИдентификатор : 224 (0xE0)Формат : MPEG VideoВерсия формата : Version 2Профиль формата : Main@MainПараметр BVOP формата : ДаПараметр матрицы формата : ВыборочнаяПараметр GOP формата : VariableПродолжительность : 45 м.Вид битрейта : ПеременныйБитрейт : 2053 Кбит/секШирина : 720 пикселейВысота : 576 пикселейСоотношение сторон : 4:3Частота кадров : 25,000 кадров/секСтандарт вещания : PALЦветовое пространство : YUVСубдискретизация насыщенности : 4:2:0Битовая глубина : 8 битТип развёртки : ЧересстрочнаяПорядок развёртки : Верхнее поле первоеМетод сжатия : С потерямиБит/(Пиксели*Кадры) : 0.198Временной код первого кадра : 00:00:00:00Оригинал временного кода : Group of pictures headerРазмер потока : 669 Мбайт (90%)
АудиоИдентификатор : 192 (0xC0)Формат : MPEG AudioВерсия формата : Version 1Профиль формата : Layer 2Продолжительность : 45 м.Вид битрейта : ПостоянныйБитрейт : 192 Кбит/секКаналы : 2 каналаЧастота : 48,0 КГцМетод сжатия : С потерямиРазмер потока : 62,6 Мбайт (8%)

Скриншот c названием фильма

Скриншоты


Резервные скриншоты


-1'151/1'132√[-4]
[teatrix.ru].t4437.torrent 
Торрент: Зарегистрирован [ 2015-10-08 00:27 ] · 9F0D690E723C312C0FB4EB8BCF831D6BE0F3E2C2

Скачать .torrent

Скачать

11 KB

Статус: проверено
Скачан: 0 раз
Размер: 2.13 GB
terms.php



Быстрый ответ

Имя:

      
Для отправки сообщений необходимо включить JavaScript
Показать сообщения:    

Текущее время: 03-Дек 07:38

Часовой пояс: UTC + 3


Вы можете начинать темы
Вы можете отвечать на сообщения
Вы не можете редактировать свои сообщения
Вы не можете удалять свои сообщения
Вы не можете голосовать в опросах
Вы не можете прикреплять файлы к сообщениям
Вы можете скачивать файлы