II Мировая война: мужчины в военной форме / World War II - Men in Uniform (Эван Бачнер / Evan Bachner) [2011, США, документальный футаж, ню, историческая фотография, короткий метр, SATRip]


Статистика раздачи [Обновить пиров]
Размер:  132 MB   |    Зарегистрирован:  1 год 1 месяц   |    Скачан:  0 раз

Полного источника не было: Никогда

 
   
 
 
 

[Цитировать]

II Мировая война: мужчины в военной форме
World War II - Men in Uniform- Страна: США
Жанр: документальный футаж, ню, историческая фотография, короткий метр
Год выпуска: 2011
Продолжительность: 00:09:08
Перевод: Не требуется
Cубтитры: нет
Оригинальная аудиодорожка: музыкальное сопровождение
Режиссер: не указан
В ролях: архивные фотоОписание: Точной информации о фильме найти не удалось. Возможно, он сделан по фотоальбому "Men of WW II: Fighting Men at Ease" (2007), составленному Эваном Бачнером / Evan Bachner, историком фотографии Бизнес школы Колумбийского университета, на основе фотографий американских военных корреспондентов Edward J. Steichen, Wayne Miller, Howard Liberman, Victor Jorgensen, Horace Bristol, Barrett Gallagher. (Хотя несколько фотографий в фильме явно принадлежат к послевоенным годам)
Кинохроника и литература о II Мировой войне обычно говорят о наиболее ужасающих моментах, приведших к огромным человеческим трагедиям. Но между ружейными выстрелами и взрывами бомб, между боевыми действиями и маршбросками, в редкие минуты отдыха существовала и другая реальность, в которой люди оставались обычными людьми, радовались лучам солнца, смеялись, на время позабыв о том, что, возможно, уже через мгновение их ожидает гибель…
Вспомните великолепный советский фильм "А зори здесь тихие" (1972), снятый по одноимённой повести Бориса Васильева режиссёром Станиславом Ростоцким.
Вашему вниманию предлагается необычный футаж архивных военных фотографий, показывающих другую сторону фронтового быта в минуты отдыха от суровых будней. Это подлинные фотографии военного времени запечатлели мужчин, сражавшихся на полях II Мировой войны в составе Вооруженных сил США, союзных войск, и немецких солдат.
Доп. информация: На территории РФ возрастное ограничение 18+.
Сэмпл: http://multi-up.com/941220
Качество видео: SATRip
Формат видео: AVI
Видео: XviD, 640x368 (1.74:1), 23.976 fps, ATI YVU12 4:2:0 Planar ~1819 kbps avg, 0.322 bit/pixel
Аудио: 48 kHz, MPEG Layer 3, 2 ch, ~192.00 kbps avg

MediaInfo

Полное имя : H:\My Torrents\[apreder]MINI_MOVIE_008\[apreder]MM_World_War_II_Men_in_Uniform(2011)SATRip.aviФормат : AVIФормат/Информация : Audio Video InterleaveРазмер файла : 132 МбайтПродолжительность : 9 м. 8 с.Общий поток : 2020 Кбит/сек
ВидеоИдентификатор : 0Формат : MPEG-4 VisualПрофиль формата : Advanced Simple@L5Параметр BVOP формата : НетПараметр QPel формата : НетПараметр GMC формата : Без точки переходаПараметр матрицы формата : Default (H.263)Идентификатор кодека : XVIDИдентификатор кодека/Подсказка : XviDПродолжительность : 9 м. 8 с.Битрейт : 1819 Кбит/секШирина : 640 пикселейВысота : 368 пикселейСоотношение сторон : 16:9Частота кадров : 23,976 кадра/секЦветовое пространство : YUVСубдискретизация насыщенности : 4:2:0Битовая глубина : 8 битТип развёртки : ПрогрессивнаяМетод сжатия : С потерямиБит/(Пиксели*Кадры) : 0.322Размер потока : 119 Мбайт (90%)Библиотека кодирования : XviD 64
АудиоИдентификатор : 1Формат : MPEG AudioВерсия формата : Version 1Профиль формата : Layer 3Режим : Joint stereoРасширение режима : MS StereoИдентификатор кодека : 55Идентификатор кодека/Подсказка : MP3Продолжительность : 9 м. 8 с.Вид битрейта : ПостоянныйБитрейт : 192 Кбит/секКаналы : 2 каналаЧастота : 48,0 КГцМетод сжатия : С потерямиРазмер потока : 12,6 Мбайт (10%)Выравнивание : Разделение по промежуткамПродолжительность промежутка : 42 мс. (1,00 видеокадр)Время предзагрузки промежутка : 500 мс.Библиотека кодирования : LAME3.98.4

Скриншот c названием фильма

Скриншоты

Резервные скриншоты

-1'139/1'120√[-4]
[teatrix.ru].t4442.torrent 
Торрент: Зарегистрирован [ 2015-10-08 00:27 ] · A12C28909CD6F61EDBCB53A63D87C712B778A77D

Скачать .torrent

Скачать

11 KB

Статус: проверено
Скачан: 0 раз
Размер: 132 MB
terms.php



Быстрый ответ

Имя:

      
Для отправки сообщений необходимо включить JavaScript
Показать сообщения:    

Текущее время: 07-Дек 19:29

Часовой пояс: UTC + 3


Вы можете начинать темы
Вы можете отвечать на сообщения
Вы не можете редактировать свои сообщения
Вы не можете удалять свои сообщения
Вы не можете голосовать в опросах
Вы не можете прикреплять файлы к сообщениям
Вы можете скачивать файлы