Я Вас любил... (Три романса) / I Loved You... (Three Romances) (Виктор Косаковский / Victor Kossakovsky) [2000, Россия, Документальное кино, DVDRip] + Sub Fre + Original Rus


Статистика раздачи [Обновить пиров]
Размер:  1.86 GB   |    Зарегистрирован:  1 год 1 месяц   |    Скачан:  0 раз

Полного источника не было: Никогда

 
   
 
 
 

[Цитировать]

Я Вас любил... (Три романса) / I Loved You... (Three Romances)
Страна: Россия
Жанр: Документальное кино
Год выпуска: 2000
Продолжительность: 01:42:30
Перевод: Не требуется
Cубтитры: французские (неотключаемые)
Оригинальная аудиодорожка: русский
Режиссер: Виктор Косаковский / Victor Kossakovsky
Содержание фильма:
Первая часть: Павел и Ляля - Иерусалимский романс / First Part: Pavel and Lyalya (Jerusalem Romance)
Вторая часть: Сергей и Наташа - Провинциальный романс / Second Part: Sergey and Natasha (Provincial Romance)
Третья часть: Детский сад. Саша и Катя - Первый романс / Third Part: Kindergarten. Sasha and Katya (First Romance)
Описание: Этот фильм Виктора Косаковского состоит из трех историй о любви: отношениях между двумя стариками, двумя молодоженами и двумя детьми. Первая часть - трогательная история о женщине, которая всеми силами стремится спасти своего смертельно больного мужа Павла, проявляя удивительную стойкость перед жизнью, любовь и бесконечное терпение. Во второй части Сергей и Наташа сняты в день свадьбы. Они выбрали друг друга, несмотря на скептическое отношение родственников к их союзу. Третья часть фильма представляет собой историю о первой десткой любви, изображенную просто и с впечатляющей красотой. Тонкой нитью связывает все эти истории исполнение романсов Иваном Козловским на стихи Александра Пушкина.
Доп. информация: Все части фильма сняты в трех разных форматах видеосъемки.
http://www.imdb.com/title/tt0275415/?ref_=nm_flmg_dr_6
Сэмпл: http://yadi.sk/d/0iLtkW0pGEFCs
Качество видео: DVDRip
Формат видео: AVI
Видео: 672x528 (1.27:1), 25 fps, DivX Codec 4.x ~2328 kbps avg, 0.26 bit/pixel
Аудио: 48 kHz, AC3 Dolby Digital, 2/0 (L,R) ch, ~256 kbps
Формат субтитров: hardsub (неотключаемые)

MediaInfo

Общее
Полное имя : C:\Торренты\Victor Kossakovsky - I Loved You... (Three Romances) (2001).avi
Формат : AVI
Формат/Информация : Audio Video Interleave
Размер файла : 1,86 Гбайт
Продолжительность : 1 ч. 42 м.
Общий поток : 2594 Кбит/сек
Программа кодирования : VirtualDubMod 1.5.10.3 | www.virtualdub-fr.org || (build 2550/release)
Библиотека кодирования : VirtualDubMod build 2550/release
Видео
Идентификатор : 0
Формат : MPEG-4 Visual
Профиль формата : Advanced Simple@L5
Параметр BVOP формата : 2
Параметр QPel формата : Нет
Параметр GMC формата : Без точки перехода
Параметр матрицы формата : Default (H.263)
Идентификатор кодека : DIVX
Идентификатор кодека/Информация : Project Mayo
Идентификатор кодека/Подсказка : DivX 4
Продолжительность : 1 ч. 42 м.
Битрейт : 2328 Кбит/сек
Ширина : 672 пикселя
Высота : 528 пикселей
Соотношение сторон : 1,273
Частота кадров : 25,000 кадров/сек
Цветовое пространство : YUV
Субдискретизация насыщенности : 4:2:0
Битовая глубина : 8 бит
Тип развёртки : Прогрессивная
Метод сжатия : С потерями
Бит/(Пиксели*Кадры) : 0.262
Размер потока : 1,67 Гбайт (90%)
Библиотека кодирования : XviD 65
Аудио
Идентификатор : 1
Формат : AC-3
Формат/Информация : Audio Coding 3
Расширение режима : CM (complete main)
Параметр Endianness формата : Big
Идентификатор кодека : 2000
Продолжительность : 1 ч. 42 м.
Вид битрейта : Постоянный
Битрейт : 256 Кбит/сек
Каналы : 2 канала
Расположение каналов : Front: L R
Частота : 48,0 КГц
Битовая глубина : 16 бит
Метод сжатия : С потерями
Размер потока : 188 Мбайт (10%)
Выравнивание : Разделение по промежуткам
Продолжительность промежутка : 40 мс. (1,00 видеокадр)
Время предзагрузки промежутка : 500 мс.

Скриншот c названием фильма

[teatrix.ru].t4443.torrent 
Торрент: Зарегистрирован [ 2015-10-08 00:27 ] · 080F61FD2A4030121C6616A1DF94EACC747F46F7

Скачать .torrent

Скачать

19 KB

Статус: проверено
Скачан: 0 раз
Размер: 1.86 GB
terms.php



Быстрый ответ

Имя:

      
Для отправки сообщений необходимо включить JavaScript
Показать сообщения:    

Текущее время: 07-Дек 17:29

Часовой пояс: UTC + 3


Вы можете начинать темы
Вы можете отвечать на сообщения
Вы не можете редактировать свои сообщения
Вы не можете удалять свои сообщения
Вы не можете голосовать в опросах
Вы не можете прикреплять файлы к сообщениям
Вы можете скачивать файлы