Гнарр / Gnarr (Гаукур Улфарсон / Gaukur Ulfarsson) [2010, Исландия, документальный, политический парадокс, сатира, DVB] DVO (24ДОК)


Статистика раздачи [Обновить пиров]
Размер:  1.55 GB   |    Зарегистрирован:  1 год 1 месяц   |    Скачан:  1 раз

Полного источника не было: 1 день 20 часов

 
   
 
 
 

[Цитировать]

Гнарр
Gnarr- Страна: Исландия
Жанр: документальный, политический парадокс, сатира
Год выпуска: 2010
Продолжительность: 01:29:46
Перевод: Профессиональный (двухголосый закадровый) 24ДОК
Cубтитры: нет
Оригинальная аудиодорожка: нет
Режиссер: Гаукур Улфарсон / Gaukur Úlfarsson
В ролях: Йон Гнарр / Jón GnarrОписание: Вступительное слово директора по стратегии ИД "КоммерсантЪ" Виктора Лошака.
После экономического кризиса в стране въедливый исландский комик Йон Гнарр создает собственную политическую партию — "Лучшую партию". Его программа состоит из регулярных бесплатных поездок в Диснейленд, увеличения количества белых медведей в зоопарке, а также отказов от работы с теми, кто не смотрит сериал "Прослушка / The Wire". Когда же поддержка бессмысленной кампании Гнарра внезапно возрастает, то, что начиналось как шутка, быстро захватывает нацию, которая отчаянно хочет перемен. (анонс канала "24ДОК")
Йон Гнарр - мэр Рейкьявика, исландский комедийный актёр, писатель, музыкант и политик. Основатель "Лучшей партии", одержавшей победу в муниципальный совет Рейкьявика. Отец пятерых детей. Фильм рассказывает о предвыборной гонке Йона Гнарра на пост мэра Рейкьявика.
Доп. информация: "24ДОК"
Награды: 2 награды Traverse City Film Festival 2011 (лучший режиссер иностранного документального фильма, лучший иностранный документальный фильм); номинация Edda Awards (Iceland) 2011 на документальный фильм года.
http://www.imdb.com/title/tt1756533/
Сэмпл: http://multi-up.com/938940
Качество видео: DVB-S
Формат видео: MPEG-PS (См. при проблемах с просмотром видео)
Видео: MPEG Video 2, 720x576@768x576 (4:3), 25 fps, ~2237 kbps avg, 0.216 bit/pixel
Аудио: 48 kHz, MPEG Audio 2, 2 ch, ~192.00 kbps avg

MediaInfo

Полное имя : H:\My Torrents\[apreder]Gnarr(2010)DVB.mpgФормат : MPEG-PSРазмер файла : 1,55 ГбайтПродолжительность : 1 ч. 29 м.Режим общего битрейта : ПеременныйОбщий поток : 2478 Кбит/сек
ВидеоИдентификатор : 224 (0xE0)Формат : MPEG VideoВерсия формата : Version 2Профиль формата : Main@MainПараметр BVOP формата : ДаПараметр матрицы формата : ВыборочнаяПараметр GOP формата : VariableПродолжительность : 1 ч. 29 м.Вид битрейта : ПеременныйБитрейт : 2237 Кбит/секШирина : 720 пикселейВысота : 576 пикселейСоотношение сторон : 4:3Частота кадров : 25,000 кадров/секСтандарт вещания : PALЦветовое пространство : YUVСубдискретизация насыщенности : 4:2:0Битовая глубина : 8 битТип развёртки : ЧересстрочнаяПорядок развёртки : Верхнее поле первоеМетод сжатия : С потерямиБит/(Пиксели*Кадры) : 0.216Временной код первого кадра : 00:00:00:00Оригинал временного кода : Group of pictures headerРазмер потока : 1,40 Гбайт (90%)
АудиоИдентификатор : 192 (0xC0)Формат : MPEG AudioВерсия формата : Version 1Профиль формата : Layer 2Продолжительность : 1 ч. 29 м.Вид битрейта : ПостоянныйБитрейт : 192 Кбит/секКаналы : 2 каналаЧастота : 48,0 КГцМетод сжатия : С потерямиРазмер потока : 123 Мбайт (8%)

Скриншот c названием фильма

Скриншоты


Резервные скриншоты


-1'136/1'117√[-4]
[teatrix.ru].t4445.torrent 
Торрент: Зарегистрирован [ 2015-10-08 00:27 ] · 25802082D7AD1E9B7D4076AE74C982CBE28B110B

Скачать .torrent

Скачать

16 KB

Статус: проверено
Скачан: 1 раз
Размер: 1.55 GB
terms.php



Быстрый ответ

Имя:

      
Для отправки сообщений необходимо включить JavaScript
Показать сообщения:    

Текущее время: 03-Дек 20:45

Часовой пояс: UTC + 3


Вы можете начинать темы
Вы можете отвечать на сообщения
Вы не можете редактировать свои сообщения
Вы не можете удалять свои сообщения
Вы не можете голосовать в опросах
Вы не можете прикреплять файлы к сообщениям
Вы можете скачивать файлы