Манифест ремиксера / RiP! A Remix Manifesto (Бретт Гейлор / Brett Gaylor) [2008, Канада, документальный, мэшап, музыкальный, концептуальный, DVB] DVO (Видеопродакшн)


Статистика раздачи [Обновить пиров]
Размер:  1.99 GB   |    Зарегистрирован:  1 год 1 месяц   |    Скачан:  0 раз

Полного источника не было: Никогда

 
   
 
 
 

[Цитировать]

Манифест ремиксера
RiP! A Remix Manifesto- Страна: Канада
Жанр: документальный, мэшап, музыкальный, концептуальный
Год выпуска: 2008
Продолжительность: 01:29:26Перевод: Профессиональный (двухголосый закадровый) (компания "Видеопродакшн")
Cубтитры: нет
Оригинальная аудиодорожка: нет
Режиссер: Бретт Гейлор / Brett Gaylor
В ролях: Грег Гиллис / Gregg Gillis (aka Girl Talk), Лоуренс Лессинг / Lawrence Lessig, Гильберто Жиль / Gilberto Gil, Кори Доктороу / Cory Doctorow
Описание: Погрузитесь в яркий, современный и полулегальный мир мэшапа. Режиссер Бретт Гейлор и музыкант-мэшапер Грег Гиллис станут вашими гидами в этом путешествии. Создатели фильма исследуют аспекты производства медийного контента и авторских прав на него в век цифровых технологий. Они пытаются разрушить стену разногласий между производителями и пользователями. В фильме - комментарии политиков, музыкальных критиков и других экспертов. (анонс канала "24ДОК")
МАНИФЕСТ РЕМИКСЕРА
1. Культура всегда строится на прошлом.
2. Прошлое всегда будет стремиться контролировать будущее.
3. Наше будущее становится менее свободным.
4. Чтобы построить свободное общество нам нужно ограничить контроль со стороны прошлого.
Доп. информация: 24ДОК.
Награды: приз Зрительских симпатий IDFA - International Documentary Film Festival Amsterdam 2008; приз Cadillac People’s Choice Award - Whistler Film Festival 2008; Специальный приз жюри Festival du Nouveau Cinéma (Montreal) 2009; номинация Genie Awards 2010 на лучший полнометражный документальный фильм.
http://www.imdb.com/title/tt1397511/
Сэмпл: http://multi-up.com/938276
Качество видео: DVB-S
Формат видео: MPEG-PS (См. при проблемах с просмотром видео)
Видео: MPEG Video 2, 720x576@768x576 (4:3), 25 fps, ~2921 kbps avg, 0.282 bit/pixel
Аудио: 48 kHz, MPEG Audio 2, 2 ch, ~192.00 kbps avg

MediaInfo

Полное имя : H:\My Torrents\[apreder]RiP_A_Remix_Manifesto(2008)DVB.mpgФормат : MPEG-PSРазмер файла : 1,99 ГбайтПродолжительность : 1 ч. 29 м.Режим общего битрейта : ПеременныйОбщий поток : 3176 Кбит/сек
ВидеоИдентификатор : 224 (0xE0)Формат : MPEG VideoВерсия формата : Version 2Профиль формата : Main@MainПараметр BVOP формата : ДаПараметр матрицы формата : ВыборочнаяПараметр GOP формата : VariableПродолжительность : 1 ч. 29 м.Вид битрейта : ПеременныйБитрейт : 2921 Кбит/секШирина : 720 пикселейВысота : 576 пикселейСоотношение сторон : 4:3Частота кадров : 25,000 кадров/секСтандарт вещания : PALЦветовое пространство : YUVСубдискретизация насыщенности : 4:2:0Битовая глубина : 8 битТип развёртки : ЧересстрочнаяПорядок развёртки : Верхнее поле первоеМетод сжатия : С потерямиБит/(Пиксели*Кадры) : 0.282Временной код первого кадра : 00:00:00:00Оригинал временного кода : Group of pictures headerРазмер потока : 1,83 Гбайт (92%)
АудиоИдентификатор : 192 (0xC0)Формат : MPEG AudioВерсия формата : Version 1Профиль формата : Layer 2Продолжительность : 1 ч. 29 м.Вид битрейта : ПостоянныйБитрейт : 192 Кбит/секКаналы : 2 каналаЧастота : 48,0 КГцМетод сжатия : С потерямиРазмер потока : 123 Мбайт (6%)

Скриншот c названием фильма

Скриншоты


Резервные скриншоты


-1'134/1'115√[-4]
[teatrix.ru].t4447.torrent 
Торрент: Зарегистрирован [ 2015-10-08 00:27 ] · 0801D34103230FA2F03A60EA3293B982DB4A6750

Скачать .torrent

Скачать

20 KB

Статус: проверено
Скачан: 0 раз
Размер: 1.99 GB
terms.php



Быстрый ответ

Имя:

      
Для отправки сообщений необходимо включить JavaScript
Показать сообщения:    

Текущее время: 05-Дек 01:23

Часовой пояс: UTC + 3


Вы можете начинать темы
Вы можете отвечать на сообщения
Вы не можете редактировать свои сообщения
Вы не можете удалять свои сообщения
Вы не можете голосовать в опросах
Вы не можете прикреплять файлы к сообщениям
Вы можете скачивать файлы