Жан-Поль Готье: путь баловня судьбы / Jean-Paul Gaultier, itineraire d\'un enfant cheri (Ален Телер / Alain Teulere) [2012, Франция, документальный, фэшн-арт, китч, гламур, DVB] Original (Fre) + Sub (ru hard)


Статистика раздачи [Обновить пиров]
Размер:  1.43 GB   |    Зарегистрирован:  1 год 3 месяца   |    Скачан:  0 раз

Полного источника не было: Никогда

 
   
 
 
 

[Цитировать]

Жан-Поль Готье: путь баловня судьбы
Jean-Paul Gaultier, itinéraire d'un enfant chéri- Страна: Франция
Жанр: документальный, фэшн-арт, китч, гламур
Год выпуска: 2012
Продолжительность: 00:49:45
Перевод: Субтитры (перевод К. Семенюк, Éclair Group)
Cубтитры: русские
Оригинальная аудиодорожка: французский
Режиссер: Ален Телер / Alain TeulèreВ ролях: Жан-Поль Готье, Мадонна, Катрин Денев, Бет Дито, Дита фон Тиз, Кайли Миноуг, Леди Гага, Жиль Жакоб, Тим Рот, Жанна Балибар, Ив Сен-Лоран (Archive), Тони Уард (Archive), Жан-Батист Мондино, Иветт Орнер (Archive), Шейла (Archive), Сильви Вартан (Archive), Милен Фармер (Archive), Ариэль Домбаль, Антуан де Кон, Али Махдави, Клод Лелуш
Описание: Релаксационная музыка, изящные фигуры моделей и нежная элегантность платья не имеют ничего общего с фееричными шоу Готье, на которых царит атмосфера изысканного разврата и вседозволенности. Главное правило короля эпатажа – свобода.
В 1975 году Готье, его партнёр Дональд Потар и любовник Фрэнсис Менуж основывают собственную фирму. Средств – минимум, вдохновения – через край, и первая коллекция создаётся воистину невероятно. В ход идут скатерти, салфетки, ковры, спички, батарейки и подобные мелочи. Особенный шок публика испытала от мужского дефиле – новая эстетика, перевернувшая привычный взгляд на мужскую сексуальность и её выражение с помощью одежды.
Жан-Поль Готье был награждён премией Fashion Group International за "слом стереотипов и стирание границ моды" и стал кавалером ордена Почетного легиона. Часть своих доходов он переводит в фонд борьбы со СПИДом – в 1990 году болезнь забрала у кутюрье Фрэнсиса Менужа. Готье – один из гениальнейших людей эпохи, с лёгкостью владеющий смешением стилей и изобретением поразительных вещей. (из статьи Яны Подосельник "Enfant terrible Jean Paul Gaultier")
Доп. информация: TV5MONDE. На территории РФ возрастное ограничение 18+.
Сэмпл: http://multi-up.com/937980
Качество видео: DVB-S
Формат видео: MPEG-PS (См. при проблемах с просмотром видео)
Видео: MPEG Video 2, 720x576@1024x576 (16:9), 25 fps, ~3837 kbps avg, 0.370 bit/pixel
Аудио: Французский (48 kHz, MPEG Audio 2, 2 ch, ~192.00 kbps avg)
Формат субтитров: hardsub (неотключаемые)

MediaInfo

Полное имя : H:\My Torrents\[apreder]Jean-Paul_Gaultier_itineraire_d'un_enfant_cheri(2012)DVB.mpgФормат : MPEG-PSРазмер файла : 1,43 ГбайтПродолжительность : 49 м.Режим общего битрейта : ПеременныйОбщий поток : 4110 Кбит/сек
ВидеоИдентификатор : 224 (0xE0)Формат : MPEG VideoВерсия формата : Version 2Профиль формата : Main@MainПараметр BVOP формата : ДаПараметр матрицы формата : ВыборочнаяПараметр GOP формата : M=3, N=24Продолжительность : 49 м.Вид битрейта : ПеременныйБитрейт : 3837 Кбит/секШирина : 720 пикселейВысота : 576 пикселейСоотношение сторон : 16:9Частота кадров : 25,000 кадров/секСтандарт вещания : PALЦветовое пространство : YUVСубдискретизация насыщенности : 4:2:0Битовая глубина : 8 битТип развёртки : ПрогрессивнаяПорядок развёртки : Верхнее поле первоеМетод сжатия : С потерямиБит/(Пиксели*Кадры) : 0.370Временной код первого кадра : 00:00:00:00Оригинал временного кода : Group of pictures headerРазмер потока : 1,33 Гбайт (93%)
АудиоИдентификатор : 192 (0xC0)Формат : MPEG AudioВерсия формата : Version 1Профиль формата : Layer 2Продолжительность : 49 м.Вид битрейта : ПостоянныйБитрейт : 192 Кбит/секКаналы : 2 каналаЧастота : 48,0 КГцМетод сжатия : С потерямиРазмер потока : 68,4 Мбайт (5%)

Скриншот c названием фильма

Скриншоты


Резервные скриншоты


-1'131/1'112√[-4]
[teatrix.ru].t4448.torrent 
Торрент: Зарегистрирован [ 2015-10-08 00:27 ] · 01F512F9693DACC98DDB825262B0B49AB25A18AA

Скачать .torrent

Скачать

15 KB

Статус: проверено
Скачан: 0 раз
Размер: 1.43 GB
terms.php



Быстрый ответ

Имя:

      
Для отправки сообщений необходимо включить JavaScript
Показать сообщения:    

Текущее время: 19-Янв 22:16

Часовой пояс: UTC + 3


Вы можете начинать темы
Вы можете отвечать на сообщения
Вы не можете редактировать свои сообщения
Вы не можете удалять свои сообщения
Вы не можете голосовать в опросах
Вы не можете прикреплять файлы к сообщениям
Вы можете скачивать файлы