Коты свободы / Коты в городе / Chats perchés (Крис Маркер / Chris Marker) [2004, Франция, документальный, политический, TVRip] + Sub Rus + Original Fre


Статистика раздачи [Обновить пиров]
Размер:  699 MB   |    Зарегистрирован:  1 год 1 месяц   |    Скачан:  0 раз

Полного источника не было: Никогда

 
   
 
 
 

[Цитировать]

Коты свободы / Chats perchés
Страна: Франция
Жанр: документальный, политический
Год выпуска: 2004
Продолжительность: 00:57:53
Перевод: Субтитры
Cубтитры: русские, английские
Оригинальная аудиодорожка: французский, английский
Режиссер, оператор, композитор и монтажер: Крис Маркер / Chris Marker
В ролях: Кошка Каролин, Кот Болеро, Бертран Канта, Дьедонне, Леон Шварценберг, Джордж Буш мл. и др.
Описание: На улицах Парижа появляются нахальные коты. В новостях их называют не иначе как оккупантами, ведь они захватывают дома, деревья, асфальт, полотна Пикассо - любую удобную территорию, на которой можно вальяжно растянуться на зависть окружающим. Собравшись как-то раз на очередной флешмоб, Крис Маркер отправляется выслеживать пришельцев и попадает в самую гущу политических событий.
IMDB Кинопоиск
Качество видео: TVRip
Формат видео: AVI
Видео: XviD, 560x416, 4:3, 25, 1585 kb/s
Аудио: MPEG-1 Layer 3 LAME 3.97b, 48 KHz, 89,9 kb/s VBR, Joint stereo
Формат субтитров: softsub (SRT)

MediaInfo

General
Complete name : /media/D6749AA2749A8541/Video/tmp/Chris Marker - Chats perches (2004)/Chris Marker - chats perches (2004).avi
Format : AVI
Format/Info : Audio Video Interleave
File size : 699 MiB
Duration : 57mn 53s
Overall bit rate mode : Variable
Overall bit rate : 1 688 Kbps
Writing application : VirtualDubMod 1.5.10.2 (build 2540/release)
Writing library : VirtualDubMod build 2540/release
Video
ID : 0
Format : MPEG-4 Visual
Format profile : Advanced Simple@L5
Format settings, BVOP : 2
Format settings, QPel : No
Format settings, GMC : No warppoints
Format settings, Matrix : Default (H.263)
Codec ID : XVID
Codec ID/Hint : XviD
Duration : 57mn 53s
Bit rate : 1 586 Kbps
Width : 560 pixels
Height : 416 pixels
Display aspect ratio : 4:3
Frame rate : 25.000 fps
Color space : YUV
Chroma subsampling : 4:2:0
Bit depth : 8 bits
Scan type : Progressive
Compression mode : Lossy
Bits/(Pixel*Frame) : 0.272
Stream size : 657 MiB (94%)
Writing library : XviD 1.1.0 (UTC 2005-11-22)
Audio
ID : 1
Format : MPEG Audio
Format version : Version 1
Format profile : Layer 3
Mode : Joint stereo
Mode extension : MS Stereo
Codec ID : 55
Codec ID/Hint : MP3
Duration : 57mn 53s
Bit rate mode : Variable
Bit rate : 89.9 Kbps
Minimum bit rate : 32.0 Kbps
Channel(s) : 2 channels
Sampling rate : 48.0 KHz
Compression mode : Lossy
Stream size : 37.2 MiB (5%)
Alignment : Aligned on interleaves
Interleave, duration : 24 ms (0.60 video frame)
Interleave, preload duration : 273 ms
Writing library : LAME3.97b
Encoding settings : -m j -V 4 -q 3 -lowpass 17.5 --vbr-new -b 32

Скриншот c названием фильма

[teatrix.ru].t4451.torrent 
Торрент: Зарегистрирован [ 2015-10-08 00:27 ] · E8E03C8CC1A4FB28594D25D81113FAC49EE36A5F

Скачать .torrent

Скачать

28 KB

Статус: проверено
Скачан: 0 раз
Размер: 699 MB
terms.php



Быстрый ответ

Имя:

      
Для отправки сообщений необходимо включить JavaScript
Показать сообщения:    

Текущее время: 07-Дек 23:12

Часовой пояс: UTC + 3


Вы можете начинать темы
Вы можете отвечать на сообщения
Вы не можете редактировать свои сообщения
Вы не можете удалять свои сообщения
Вы не можете голосовать в опросах
Вы не можете прикреплять файлы к сообщениям
Вы можете скачивать файлы