Кокто - Маре: Легендарная пара / Жан Кокто, Жан Маре / Cocteau Marais - Un couple mythique (Ив Риу / Yves Riou, Филипп Пушен / Philippe Pouchain) [2013, Франция, документальный, биографический, гей-тема, DVB] Original (Fre) + Sub (rus)


Статистика раздачи [Обновить пиров]
Размер:  1.61 GB   |    Зарегистрирован:  1 год 1 месяц   |    Скачан:  0 раз

Полного источника не было: Никогда

 
   
 
 
 

[Цитировать]

Кокто - Маре: Легендарная пара
Cocteau Marais - Un couple mythique- Страна: Франция
Жанр: документальный, биографический, гей-тема
Год выпуска: 2013
Продолжительность: 00:55:55
Перевод: Субтитры (перевод О. Першиной, Éclair Group)
Cубтитры: русские
Оригинальная аудиодорожка: французскийРежиссер: Ив Риу / Yves Riou, Филипп Пушен / Philippe Pouchain
В ролях: Жан Кокто, Жан Маре, Арлетти, Пьер Брассер, Коко Шанель, Колетт, Сальвадор Дали, Фернандель, Жан Габен, Саша Гитри, Жан-Пьер Мельвиль, Мистенгетт, Эдит Пиаф, Пабло Пикассо
Описание: Фильм приурочен к 50-летию со дня смерти Жана Кокто (1889-1963).
История страсти, именно той, что связывает Жана Кокто, поэта Пигмалион, романиста, чертежника, драматурга, авангардистского кинематографиста, и Жана Маре, популярного актера, "любимого" хамелеона, священного идола французского кино. Между ними завязываются удивительные отношения, которые с 1937 по 1963 соединяют любовь и искусство.
Доп. информация: Запись со спутника (телеканал TV5MONDE). На территории РФ возрастное ограничение 18+.
http://www.imdb.com/title/tt3258108/
Сэмпл: http://multi-up.com/935057
Качество видео: DVB
Формат видео: MPEG-PS (См. при проблемах с просмотром видео)
Видео: MPEG Video 2, 720x576@1024x576 (16:9), 25 fps, ~3837 kbps avg, 0.370 bit/pixel
Аудио: Французский (48 kHz, MPEG Audio 2, 2 ch, ~192.00 kbps avg)
Формат субтитров: hardsub (неотключаемые)

MediaInfo

Полное имя : H:\My Torrents\[apreder]Cocteau_Marais_Un_couple_mythique(2013)DVB.mpgФормат : MPEG-PSРазмер файла : 1,61 ГбайтПродолжительность : 55 м.Режим общего битрейта : ПеременныйОбщий поток : 4111 Кбит/сек
ВидеоИдентификатор : 224 (0xE0)Формат : MPEG VideoВерсия формата : Version 2Профиль формата : Main@MainПараметр BVOP формата : ДаПараметр матрицы формата : ВыборочнаяПараметр GOP формата : M=3, N=24Продолжительность : 55 м.Вид битрейта : ПеременныйБитрейт : 3837 Кбит/секШирина : 720 пикселейВысота : 576 пикселейСоотношение сторон : 16:9Частота кадров : 25,000 кадров/секСтандарт вещания : PALЦветовое пространство : YUVСубдискретизация насыщенности : 4:2:0Битовая глубина : 8 битМетод сжатия : С потерямиБит/(Пиксели*Кадры) : 0.370Временной код первого кадра : 00:00:00:00Оригинал временного кода : Group of pictures headerРазмер потока : 1,50 Гбайт (93%)
АудиоИдентификатор : 192 (0xC0)Формат : MPEG AudioВерсия формата : Version 1Профиль формата : Layer 2Продолжительность : 55 м.Вид битрейта : ПостоянныйБитрейт : 192 Кбит/секКаналы : 2 каналаЧастота : 48,0 КГцМетод сжатия : С потерямиРазмер потока : 76,8 Мбайт (5%)

Скриншот c названием фильма

Скриншоты


Резервные скриншоты


-1'114/1'095√
[teatrix.ru].t4452.torrent 
Торрент: Зарегистрирован [ 2015-10-08 00:27 ] · 6104EA457FEFB1D5AD0BEA2CC4926323AA8B3F83

Скачать .torrent

Скачать

17 KB

Статус: проверено
Скачан: 0 раз
Размер: 1.61 GB
terms.php



Быстрый ответ

Имя:

      
Для отправки сообщений необходимо включить JavaScript
Показать сообщения:    

Текущее время: 03-Дек 18:42

Часовой пояс: UTC + 3


Вы можете начинать темы
Вы можете отвечать на сообщения
Вы не можете редактировать свои сообщения
Вы не можете удалять свои сообщения
Вы не можете голосовать в опросах
Вы не можете прикреплять файлы к сообщениям
Вы можете скачивать файлы