Левиафан / Leviathan (Люсьен Кастен-Тэйлор, Вирина Паравел / Lucien Castaing-Taylor, Verena Paravel) [2012, Франция, Великобритания, США, Документальный, BDRip 1080p]


Статистика раздачи [Обновить пиров]
Размер:  6.56 GB   |    Зарегистрирован:  1 год 2 месяца   |    Скачан:  1 раз

Полного источника не было: 1 месяц 25 дней

 
   
 
 
 

[Цитировать]

Левиафан / Leviathan
Страна: Франция, Великобритания, США
Жанр: Документальный
Год выпуска: 2012
Продолжительность: 01:28:01
Перевод: Не требуется (отсутствует речь)
Cубтитры: нет
Режиссер: Люсьен Кастен-Тэйлор, Вирина Паравел
В ролях: Declan Conneely, Johnny Gatcombe, Adrian Guillette, Brian Jannelle, Arthur Smith, Christopher Swampstead, Declan Conneely, Johnny Gatcombe, Adrian Guillette и другие суровые моряки
Описание:
Он кипятит пучину, как котел, и море претворяет в кипящую мазь;
Оставляет за собою светящуюся стезю; бездна кажется сединою.
Нет на земле подобного ему; он сотворен бесстрашным;
На все высокое смотрит смело; он царь над всеми сынами гордости.

Иов [41:23-26]
Левиафан - так в Библии названо страшное чудовище, описанное в Книге Иова.
Сейчас образ воспринимается скорее аллегорически (хотя в Псалтыри и в Иове он упоминается как живой) и представляется в виде бесчувственного механического чудовища, которое ассоциируется с Сатаной.
"Левиафан", начиная с opus magnum Томаса Гоббса и заканчивая современной black metal группой, является излюбленным названием страшного зла, механизма, пожирающего людей.
Документальное кино о промышленном рыболовстве у берегов Новой Англии. На фестивале в Торонто фильм стал сенсацией.
Качество видео: BDRip (Bluray 1080p)
Формат видео: MKV
Видео: x264, 1920x1080, 16:9, 23,976 fps, 9158 Kbps
Аудио: DTS, 48.0 KHz, 1 510 Kbps, 6 channels

MediaInfo

General
Unique ID : 206856293945084745779032448188609149162 (0x9B9F12B4ACC8598484E545305C9338EA)
Complete name : D:\Искусство\Фильмы\Leviathan.mkv
Format : Matroska
File size : 6.56 GiB
Duration : 1h 28mn
Overall bit rate : 10.7 Mbps
Encoded date : UTC 2013-10-23 06:33:59
Writing application : mkvmerge v6.4.1 ('Omega Point') built on Sep 16 2013 22:05:10
Writing library : libebml v1.3.0 + libmatroska v1.4.1
Video
ID : 1
Format : AVC
Format/Info : Advanced Video Codec
Format profile : High@L4.1
Format settings, CABAC : Yes
Format settings, ReFrames : 4 frames
Codec ID : V_MPEG4/ISO/AVC
Duration : 1h 28mn
Bit rate : 9 158 Kbps
Width : 1 920 pixels
Height : 1 080 pixels
Display aspect ratio : 16:9
Frame rate : 23.976 fps
Color space : YUV
Chroma subsampling : 4:2:0
Bit depth : 8 bits
Scan type : Progressive
Bits/(Pixel*Frame) : 0.184
Stream size : 5.50 GiB (84%)
Writing library : x264 core 138 r2358 9e941d1
Encoding settings : cabac=1 / ref=4 / deblock=1:0:0 / analyse=0x3:0x133 / me=umh / subme=7 / psy=1 / psy_rd=1.00:0.00 / mixed_ref=1 / me_range=16 / chroma_me=1 / trellis=1 / 8x8dct=1 / cqm=0 / deadzone=21,11 / fast_pskip=0 / chroma_qp_offset=-2 / threads=12 / lookahead_threads=2 / sliced_threads=0 / nr=0 / decimate=1 / interlaced=0 / bluray_compat=0 / constrained_intra=0 / bframes=3 / b_pyramid=2 / b_adapt=1 / b_bias=0 / direct=1 / weightb=1 / open_gop=0 / weightp=2 / keyint=240 / keyint_min=23 / scenecut=40 / intra_refresh=0 / rc_lookahead=40 / rc=2pass / mbtree=1 / bitrate=9158 / ratetol=1.0 / qcomp=0.60 / qpmin=0 / qpmax=69 / qpstep=4 / cplxblur=20.0 / qblur=0.5 / ip_ratio=1.40 / aq=1:1.00
Language : English
Audio
ID : 2
Format : DTS
Format/Info : Digital Theater Systems
Codec ID : A_DTS
Duration : 1h 28mn
Bit rate mode : Constant
Bit rate : 1 510 Kbps
Channel(s) : 6 channels
Channel positions : Front: L C R, Side: L R, LFE
Sampling rate : 48.0 KHz
Bit depth : 24 bits
Compression mode : Lossy
Stream size : 951 MiB (14%)
Language : English

Скриншоты

[teatrix.ru].t4453.torrent 
Торрент: Зарегистрирован [ 2015-10-08 00:27 ] · 02FFC882DCD6C0461878FAE05DE8CC2D10BE850E

Скачать .torrent

Скачать

33 KB

Статус: проверено
Скачан: 1 раз
Размер: 6.56 GB
terms.php



Быстрый ответ

Имя:

      
Для отправки сообщений необходимо включить JavaScript
Показать сообщения:    

Текущее время: 10-Дек 15:46

Часовой пояс: UTC + 3


Вы можете начинать темы
Вы можете отвечать на сообщения
Вы не можете редактировать свои сообщения
Вы не можете удалять свои сообщения
Вы не можете голосовать в опросах
Вы не можете прикреплять файлы к сообщениям
Вы можете скачивать файлы