Айсберг Слим: портрет сутенёра / Iceberg Slim: Portrait of a Pimp (Хорхе Инохоса / Jorge Hinojosa) [2012, США, документальный, биографический, DVB] DVO (24ДОК)


Статистика раздачи [Обновить пиров]
Размер:  1.5 GB   |    Зарегистрирован:  1 год 2 месяца   |    Скачан:  0 раз

Полного источника не было: Никогда

 
   
 
 
 

[Цитировать]

Айсберг Слим: портрет сутенёра
Iceberg Slim: Portrait of a Pimp- Страна: США
Жанр: документальный, биографический
Год выпуска: 2012
Продолжительность: 01:22:11Перевод: Профессиональный (двухголосый закадровый) (телеканал "24ДОК")
Cубтитры: нет
Режиссер: Хорхе Инохоса / Jorge Hinojosa
В ролях: Айсберг Слим / Iceberg Slim (Archive), Крис Рок / Chris Rock, Снуп Догг / Snoop Dogg, Айс-Ти / Ice-T, Билл Дьюк / Bill Duke, Генри Роллинз / Henry Rollins, Куинси Джонс / Quincy Jones
Описание: Фильм исследует бурную жизнь Айсберга Слима (1918 - 1992). Он родился в крайней нищете в Чикаго в конце первой мировой войны, с детства сталкивался с физическим и психологическим насилием, был рано вовлечен в преступную жизнь и более 35 лет был сутенером на улицах Чикаго. Но однажды Айсберг открыл в себе писательский талант… Он стал первым темнокожим автором, пролившим свет на реалии темной стороны уличной жизни. Семь книг, написанных Слимом, получили бешеную популярность и стали бестселлерами. (анонс канала "24ДОК")
Доп. информация: Запись со спутника (телеканал "24ДОК").
Награды: приз учредителей фестиваля Pan African International Film Festival 2013; приз Зрительских симпатий за лучший документальный фильм INDIEFEST (San Francisco) 2013.
http://www.imdb.com/title/tt2180016/
Сэмпл: http://multi-up.com/933252
Качество видео: DVB
Формат видео: MPEG-PS
Видео: MPEG Video 2, 720x576@768x576 (4:3), 25 fps, ~2363 kbps avg, 0.228 bit/pixel
Аудио: 48 kHz, MPEG Audio 2, 2 ch, ~192.00 kbps avg

MediaInfo

Полное имя : H:\My Torrents\[apreder]Iceberg_Slim_Portrait_of_a_Pimp(2012)DVB.mpgФормат : MPEG-PSРазмер файла : 1,50 ГбайтПродолжительность : 1 ч. 22 м.Режим общего битрейта : ПеременныйОбщий поток : 2607 Кбит/сек
ВидеоИдентификатор : 224 (0xE0)Формат : MPEG VideoВерсия формата : Version 2Профиль формата : Main@MainПараметр BVOP формата : ДаПараметр матрицы формата : ВыборочнаяПараметр GOP формата : VariableПродолжительность : 1 ч. 22 м.Вид битрейта : ПеременныйБитрейт : 2363 Кбит/секШирина : 720 пикселейВысота : 576 пикселейСоотношение сторон : 4:3Частота кадров : 25,000 кадров/секСтандарт вещания : PALЦветовое пространство : YUVСубдискретизация насыщенности : 4:2:0Битовая глубина : 8 битТип развёртки : ЧересстрочнаяПорядок развёртки : Верхнее поле первоеМетод сжатия : С потерямиБит/(Пиксели*Кадры) : 0.228Временной код первого кадра : 00:00:00:00Оригинал временного кода : Group of pictures headerРазмер потока : 1,36 Гбайт (91%)
АудиоИдентификатор : 192 (0xC0)Формат : MPEG AudioВерсия формата : Version 1Профиль формата : Layer 2Продолжительность : 1 ч. 22 м.Вид битрейта : ПостоянныйБитрейт : 192 Кбит/секКаналы : 2 каналаЧастота : 48,0 КГцМетод сжатия : С потерямиРазмер потока : 113 Мбайт (7%)

Скриншот c названием фильма

Скриншоты


Резервные скриншоты


-1'106/1'088√
[teatrix.ru].t4454.torrent 
Торрент: Зарегистрирован [ 2015-10-08 00:27 ] · 9F7DA9DDAB80019B31006DF3E4918A262B3D68A4

Скачать .torrent

Скачать

15 KB

Статус: проверено
Скачан: 0 раз
Размер: 1.5 GB
terms.php



Быстрый ответ

Имя:

      
Для отправки сообщений необходимо включить JavaScript
Показать сообщения:    

Текущее время: 09-Дек 08:54

Часовой пояс: UTC + 3


Вы можете начинать темы
Вы можете отвечать на сообщения
Вы не можете редактировать свои сообщения
Вы не можете удалять свои сообщения
Вы не можете голосовать в опросах
Вы не можете прикреплять файлы к сообщениям
Вы можете скачивать файлы