Округ Харлан, США / Harlan County U.S.A. (Барбара Коппл / Barbara Kopple) [1976, США, Документальный, DVD9 (Custom)] + Sub Eng ,Rus(lavr73) + Original Eng / Criterion Collection#334


Статистика раздачи [Обновить пиров]
Размер:  7.59 GB   |    Зарегистрирован:  1 год 1 месяц   |    Скачан:  0 раз

Полного источника не было: Никогда

 
   
 
 
 

[Цитировать]

Округ Харлан, США / Harlan County U.S.A. / Criterion Collection#334 Страна: США
Студия: Cabin CreekЖанр: ДокументальныйГод выпуска: 1976
Продолжительность: 01:44:28
Производитель: The Criterion Collection #334
Перевод: Субтитры
Cубтитры: Английские, Русские lavr73
Оригинальная аудиодорожка: Английский
Премьера (мир): 15.10.1976
Режиссер: Барбара Коппл / Barbara Kopple
Продюсер: Барбара Коппл
Оператор: Кевин Китинг, Харт ПерриКомпозитор: Хэйзел Дикенс, Мерл ТрэвисМонтаж: Нэнси Бэйкер, Мирра Бэнк, Лора Хэйс
В ролях: Норман Ярборо, Хьюстон Элмор, Фил Спаркс, Джон Коркоран, Джон О’Лири, Дональд Расмуссен, Хоули Уэллс мл., Том Уильямс, Chip Yablonski, Ken Yablonski
Описание: Фильм рассказывает о знаменитой Бруксайдской стачке 1973 года, получившей название «Кровавый Харлан», когда 180 горняков со своими женами выступили против руководства угольной шахты и горно-обогатительного комбината, расположенных в округе Харлан и принадлежащих компании Duke Power.
Доп. информация:Софт:PGCDemux (извлечение).
DVD-lab PRO 2, Subtitle Workshop (субтитры).
MuxMan (сборка). DvdReMakePro (финал).Исходник найден в сети.Русские субтитры lavr73 взяты из раздачи lavr73 http://rutracker.org/forum/viewtopic.php?t=4127618 .Информационная поддержка leoferre24.
Реавторинг Нордер.Огромное Спасибо Всем, без чьей помощи этот релиз не состоялся бы!Бонусы: Бонусы: (Без перевода).Аудиокомментарий Коппл и Ненси Бейкер.- Документальный фильм о съемках "Harlan County, USA", включающий интервью Коппл, членов съемочной группы и участников забастовки, которые были задействованы в фильме.
- Новое интервью с легендарной исполнительницей и автором песен в стиле блюграсс Хэйзел Диккенс.
- Ранее не демонстрировавшиеся материалы, не вошедшие в фильм при окончательном монтаже.
- Новое видеоинтервью с режиссером Джоном Сейлсом.
- Круглый стол с участием Коппл и Роджера Эберта, организованный во время МКФ в Санденсе в 2005 году.
- Оригинальный прокатный трейлер.
- Английские субтитры для слабослышащих.
- Новые очерки историка кино Пола Артура и музыкального обозревателя Джона Вайсбергера.

Награды и номинации

Оскар, 1977 год
Победитель (1):
Лучший документальный фильм.Фильм находится в списке Национального реестра фильмов. Национальный реестр фильмов (англ. National Film Registry) — список фильмов, выбранных Национальным советом США по сохранности фильмов для хранения в Библиотеке Конгресса. Полномочия совета, учреждённого согласно Национальному акту по сохранению фильмов 1988 года, были подтверждены актами Конгресса 1992, 1996 и 2005 годов (en:National Film Preservation Act).
В список ежегодно вносится двадцать пять фильмов, имеющих культурное, историческое или эстетическое значение, снятых минимум десять лет назад. В список могут быть включены полнометражные и короткометражные художественные, документальные и мультипликационные фильмы, любительское видео. В настоящий момент в реестре 600 фильмов.
Меню: Английский, анимированное, озвученное.
Округ Харлан, США на ВикипедииСэмпл: http://multi-up.com/927345Тип релиза: DVD9 (Custom)
Контейнер: DVD-Video
Видео: NTSC 16:9 (720x480) VBR, Auto Letterboxed, 6009 Кбит/сек, 29,970 кадров/сек
Аудио 1: Английский: AC3, 1/0ch (Front:C ), 48.0 KHz, 192 Кбит/сек (Оригинал)
Аудио 2: Английский: AC3, 1/0ch (Front:C ), 48.0 KHz, 192 Кбит/сек (комментарий режиссера Barbara Kopple и монтажера Nancy Baker)
Формат субтитров: prerendered (DVD/IDX+SUB)

Dvd Info

Title: Harlan County USA DVD-9_Custom_Criterion_#_334
Size: 7.59 Gb ( 7 957 886,00 KBytes ) - DVD-9
Enabled regions: 1, 2, 3, 4, 5, 6, 7, 8
VTS_01 :
Play Length: 01:44:28
Video: NTSC 16:9 (720x480) VBR, Auto Letterboxed
Audio:
English, AC3, 1/0 (C) ch, 192 kbps, Delay 0 mSec
English, AC3, 1/0 (C) ch, 192 kbps, Delay 0 mSec
Subtitles:
English
Russian
VTS_02 :
Play Length: 00:03:02
Video: NTSC 16:9 (720x480) VBR, Auto Letterboxed
Audio:
English, AC3, 1/0 (C) ch, 192 kbps, Delay 0 mSec
VTS_03 :
Play Length: 00:21:43
Video: NTSC 16:9 (720x480) VBR, Auto Letterboxed
Audio:
English, AC3, 1/0 (C) ch, 192 kbps, Delay 0 mSec
VTS_04 :
Play Length: 00:26:17+{00:05:00}+{00:02:09}+{00:05:40}+{00:07:42}+{00:02:26}+{00:03:26}
Video: NTSC 4:3 (720x480) VBR
Audio:
English, AC3, 1/0 (C) ch, 192 kbps, Delay 0 mSec
VTS_05 :
Play Length: 00:00:06
Video: NTSC 4:3 (720x480) VBR
VTS_06 :
Play Length: 00:11:43
Video: NTSC 16:9 (720x480) VBR, Auto Letterboxed
Audio:
English, AC3, 1/0 (C) ch, 192 kbps, Delay 0 mSec
VTS_07 :
Play Length: 00:06:27
Video: NTSC 16:9 (720x480) VBR, Auto Letterboxed
Audio:
English, AC3, 1/0 (C) ch, 192 kbps, Delay 0 mSec
VTS_08 :
Play Length: 00:14:02
Video: NTSC 16:9 (720x480) VBR, Auto Letterboxed
Audio:
English, AC3, 1/0 (C) ch, 192 kbps, Delay 0 mSec
VTS_09 :
Play Length: 00:00:20
Video: NTSC 4:3 (720x480) VBR
Audio:
Francais, AC3, 1/0 (C) ch, 192 kbps, Delay 10 mSec
VTS_10 :
Play Length: 00:00:20
Video: NTSC 4:3 (720x480) VBR
Audio:
Francais, AC3, 1/0 (C) ch, 192 kbps, Delay 10 mSec

MediaInfo

Общее
Полное имя : F:\Harlan County USA DVD-9_Custom_Criterion_#_334\VIDEO_TS\VTS_01_1.VOB
Формат : MPEG-PS
Размер файла : 1024 Мбайт
Продолжительность : 21 м.
Режим общего битрейта : Переменный
Общий поток : 6522 Кбит/сек
Видео
Идентификатор : 224 (0xE0)
Формат : MPEG Video
Версия формата : Version 2
Профиль формата : Main@Main
Параметр BVOP формата : Да
Параметр матрицы формата : Выборочная
Параметр GOP формата : Variable
Продолжительность : 21 м.
Вид битрейта : Переменный
Битрейт : 6009 Кбит/сек
Максимальный битрейт : 9800 Кбит/сек
Ширина : 720 пикселей
Высота : 480 пикселей
Соотношение сторон : 16:9
Частота кадров : 29,970 кадров/сек
Стандарт вещания : NTSC
Цветовое пространство : YUV
Субдискретизация насыщенности : 4:2:0
Битовая глубина : 8 бит
Тип развёртки : Чересстрочная
Порядок развёртки : Верхнее поле первое
Метод сжатия : С потерями
Бит/(Пиксели*Кадры) : 0.580
Временной код первого кадра : 00:59:48:00
Оригинал временного кода : Group of pictures header
Размер потока : 943 Мбайт (92%)
Аудио #1
Идентификатор : 189 (0xBD)-128 (0x80)
Формат : AC-3
Формат/Информация : Audio Coding 3
Расширение режима : CM (complete main)
Параметр Endianness формата : Big
Режим смешивания : DVD-Video
Продолжительность : 21 м.
Вид битрейта : Постоянный
Битрейт : 192 Кбит/сек
Каналы : 1 канал
Расположение каналов : Front: C
Частота : 48,0 КГц
Битовая глубина : 16 бит
Метод сжатия : С потерями
Размер потока : 30,1 Мбайт (3%)
Аудио #2
Идентификатор : 189 (0xBD)-129 (0x81)
Формат : AC-3
Формат/Информация : Audio Coding 3
Расширение режима : CM (complete main)
Параметр Endianness формата : Big
Режим смешивания : DVD-Video
Продолжительность : 21 м.
Вид битрейта : Постоянный
Битрейт : 192 Кбит/сек
Каналы : 1 канал
Расположение каналов : Front: C
Частота : 48,0 КГц
Битовая глубина : 16 бит
Метод сжатия : С потерями
Размер потока : 30,1 Мбайт (3%)
Текст #1
Идентификатор : 189 (0xBD)-32 (0x20)
Формат : RLE
Формат/Информация : Run-length encoding
Режим смешивания : DVD-Video
Продолжительность : 21 м.
Задержка видео : 13 с.
Текст #2
Идентификатор : 189 (0xBD)-33 (0x21)
Формат : RLE
Формат/Информация : Run-length encoding
Режим смешивания : DVD-Video
Продолжительность : 21 м.
Задержка видео : 13 с.
Текст #3
Идентификатор : 189 (0xBD)-34 (0x22)
Формат : RLE
Формат/Информация : Run-length encoding
Режим смешивания : DVD-Video
Продолжительность : 21 м.
Задержка видео : 13 с.

Скриншоты меню

Скриншоты

Скриншоты доп. материалов

Полиграфия+Буклет

Буклет-http://multi-up.com/927342
Уважаемые пользователи!Найдите пару минут поблагодарить релизера и высказаться в топике раздачи.Ваше мнение - бальзам для раздающего и пища для ума остальным пользователям.Мои раздачи
[teatrix.ru].t4455.torrent 
Торрент: Зарегистрирован [ 2015-10-08 00:27 ] · DA38F2C86778871C8710EDC24A68E7638599280A

Скачать .torrent

Скачать

41 KB

Статус: проверено
Скачан: 0 раз
Размер: 7.59 GB
terms.php



Быстрый ответ

Имя:

      
Для отправки сообщений необходимо включить JavaScript
Показать сообщения:    

Текущее время: 07-Дек 19:30

Часовой пояс: UTC + 3


Вы можете начинать темы
Вы можете отвечать на сообщения
Вы не можете редактировать свои сообщения
Вы не можете удалять свои сообщения
Вы не можете голосовать в опросах
Вы не можете прикреплять файлы к сообщениям
Вы можете скачивать файлы