Беловы / Belovy (Виктор Косаковский) [1993, Россия, Документальное кино, DVD5] + Original Rus


Статистика раздачи [Обновить пиров]
Размер:  3.88 GB   |    Зарегистрирован:  1 год 2 месяца   |    Скачан:  1 раз

Полного источника не было: 11 дней

 
   
 
 
 

[Цитировать]

Беловы / Belovy
Страна: Россия
Жанр: Документальное кино
Год выпуска: 1993
Продолжительность: 00:58:08
Перевод: Не требуется
Cубтитры: английские, голландские, все отключаемые.
Оригинальная аудиодорожка: русский
Режиссер: Виктор Косаковский / Viktor Kossakovsky
В ролях: Анна Федоровна Белова
Михаил Федорович Белов
Василий Федорович Белов
Сергей Федорович Белов
Описание: «Беловы» - картина о пожилых брате и сестре, живущих под одной крышей в сельском доме, но исповедующих совсем противоположные жизненные ценности.
Этот фильм, снятый в 1992 году, за 10 лет своего беспрерывного показа в 46-ти странах мира был удостоен более 20 призов крупнейших международных кинофестивалей. Среди наград этой по-своему уникальной картины – Государственная премия России, "Золотой Кентавр" Международного кинофестиваля в Санкт-Петербурге 1993 г., "Золотая Сестерция" Международного кинофестиваля в Нионе (Швейцария) 1993 г., Главный приз Международного кинофестиваля в Амстердаме (Голландия) 1993 г., Специальный приз жюри Международного кинофестиваля в Марселе (Франция) 1994 г. и др. Виктор Косаковский родился в 1961 году. Окончил высшие курсы сценаристов и режиссеров, с 1979 года работал на Санкт-Петербургской студии документальных фильмов. С 1989 по 2001 гг. снял семь фильмов, наибольшую известность из которых получили "Беловы" и "Среда 19.7.1961", во многом изменившие восприятие документального кино общественным сознанием и повлиявшие на сам язык современной документалистики. В 1996 г. IDFA включил фильм "Беловы" Косаковского в Top 10 рядом с классическими фильмами "Броненосец Потемкин" Эйзенштейна и "Нанук с севера" Флаэрти. Крупнейшие телеканалы Европы (BBS, ARTE, ZDF и др.) регулярно демонстрируют фильмы этого самобытного и талантливого режиссера.
Доп. информация: дата выпуска DVD диска - 17.10.2002, Голландия (IDFA) Международный фестиваль документального кино в Амстердаме. http://www.imdb.com/title/tt0106385/
http://www.imdb.com/title/tt0106385/releaseinfo?ref_=tt_ov_inf
Меню диска статичное, не озвученное.
Качество видео: DVD5
Формат видео: DVD Video
Видео: MPEG Video, PAL 4:3 (720x576) VBR, 25,000 кадров/сек
Аудио: MPEG1, 2/0ch, 384 Кбит/сек, 48,0 КГц
Сэмпл: http://yadi.sk/d/hL9AgiOBDDhiJ

DVDInfo

Title: Acer
Size: 3.88 Gb ( 4 072 686 KBytes ) - DVD-5
Enabled regions: 1, 2, 3, 4, 5, 6
VTS_01 :
Play Length: 00:58:08
Video: PAL 4:3 (720x576) VBR
Audio:
English (MPEG1, 2 ch)
Subtitles:
Nederlands
English
Menu Video:
PAL 4:3 (720x576) VBR
Menu Subtitles:
Not specified
Menu English Language Unit :
Root Menu

MediaInfo

Общее
Полное имя : C:\Торренты\BELOVY - Viktor Kosakovsky (1993)\VIDEO_TS\VTS_01_0.VOB
Формат : MPEG-PS
Размер файла : 414 Кбайт
Продолжительность : 40 мс.
Режим общего битрейта : Переменный
Общий поток : 84,8 Мбит/сек
Видео
Идентификатор : 224 (0xE0)
Формат : MPEG Video
Версия формата : Version 2
Профиль формата : Main@Main
Параметр BVOP формата : Нет
Параметр матрицы формата : Выборочная
Продолжительность : 40 мс.
Вид битрейта : Переменный
Максимальный битрейт : 8000 Кбит/сек
Ширина : 720 пикселей
Высота : 576 пикселей
Соотношение сторон : 4:3
Частота кадров : 25,000 кадров/сек
Стандарт вещания : PAL
Цветовое пространство : YUV
Субдискретизация насыщенности : 4:2:0
Битовая глубина : 8 бит
Тип развёртки : Прогрессивная
Порядок развёртки : Верхнее поле первое
Метод сжатия : С потерями
Основные цвета : BT.601 PAL
Характеристики трансфера : BT.470 System B, BT.470 System G
Коэффициенты матрицы : BT.601
Текст
Идентификатор : 189 (0xBD)-32 (0x20)
Формат : RLE
Формат/Информация : Run-length encoding
Режим смешивания : DVD-Video
Меню
Общее
Полное имя : C:\Торренты\BELOVY - Viktor Kosakovsky (1993)\VIDEO_TS\VTS_01_1.VOB
Формат : MPEG-PS
Размер файла : 1024 Мбайт
Продолжительность : 14 м.
Общий поток : 9562 Кбит/сек
Видео
Идентификатор : 224 (0xE0)
Формат : MPEG Video
Версия формата : Version 2
Профиль формата : Main@Main
Параметр BVOP формата : Да
Параметр матрицы формата : Выборочная
Параметр GOP формата : M=3, N=15
Продолжительность : 14 м.
Битрейт : 9000 Кбит/сек
Ширина : 720 пикселей
Высота : 576 пикселей
Соотношение сторон : 4:3
Частота кадров : 25,000 кадров/сек
Стандарт вещания : PAL
Цветовое пространство : YUV
Субдискретизация насыщенности : 4:2:0
Битовая глубина : 8 бит
Тип развёртки : Чересстрочная
Порядок развёртки : Верхнее поле первое
Метод сжатия : С потерями
Бит/(Пиксели*Кадры) : 0.868
Временной код первого кадра : 00:00:00:00
Оригинал временного кода : Group of pictures header
Размер потока : 962 Мбайт (94%)
Аудио
Идентификатор : 192 (0xC0)
Формат : MPEG Audio
Версия формата : Version 1
Профиль формата : Layer 2
Продолжительность : 14 м.
Вид битрейта : Постоянный
Битрейт : 384 Кбит/сек
Каналы : 2 канала
Частота : 48,0 КГц
Метод сжатия : С потерями
Задержка видео : -80 мс.
Размер потока : 41,1 Мбайт (4%)
Текст #1
Идентификатор : 189 (0xBD)-33 (0x21)
Формат : RLE
Формат/Информация : Run-length encoding
Режим смешивания : DVD-Video
Продолжительность : 14 м.
Задержка видео : 4 с. 80 мс.
Текст #2
Идентификатор : 189 (0xBD)-32 (0x20)
Формат : RLE
Формат/Информация : Run-length encoding
Режим смешивания : DVD-Video
Меню
Общее
Полное имя : C:\Торренты\BELOVY - Viktor Kosakovsky (1993)\VIDEO_TS\VTS_01_2.VOB
Формат : MPEG-PS
Размер файла : 1024 Мбайт
Продолжительность : 14 м.
Общий поток : 9561 Кбит/сек
Видео
Идентификатор : 224 (0xE0)
Формат : MPEG Video
Версия формата : Version 2
Профиль формата : Main@Main
Параметр BVOP формата : Да
Параметр матрицы формата : Выборочная
Параметр GOP формата : M=3, N=15
Продолжительность : 14 м.
Битрейт : 9000 Кбит/сек
Ширина : 720 пикселей
Высота : 576 пикселей
Соотношение сторон : 4:3
Частота кадров : 25,000 кадров/сек
Стандарт вещания : PAL
Цветовое пространство : YUV
Субдискретизация насыщенности : 4:2:0
Битовая глубина : 8 бит
Тип развёртки : Чересстрочная
Порядок развёртки : Верхнее поле первое
Метод сжатия : С потерями
Бит/(Пиксели*Кадры) : 0.868
Временной код первого кадра : 00:14:58:20
Оригинал временного кода : Group of pictures header
Размер потока : 962 Мбайт (94%)
Аудио
Идентификатор : 192 (0xC0)
Формат : MPEG Audio
Версия формата : Version 1
Профиль формата : Layer 2
Продолжительность : 14 м.
Вид битрейта : Постоянный
Битрейт : 384 Кбит/сек
Каналы : 2 канала
Частота : 48,0 КГц
Метод сжатия : С потерями
Задержка видео : -728 мс.
Размер потока : 41,1 Мбайт (4%)
Текст #1
Идентификатор : 189 (0xBD)-32 (0x20)
Формат : RLE
Формат/Информация : Run-length encoding
Режим смешивания : DVD-Video
Задержка видео : 2 с. 520 мс.
Текст #2
Идентификатор : 189 (0xBD)-33 (0x21)
Формат : RLE
Формат/Информация : Run-length encoding
Режим смешивания : DVD-Video
Задержка видео : 2 с. 520 мс.

Скриншот c названием фильма

Скриншоты

Скриншот меню

Обложка DVD

[teatrix.ru].t4456.torrent 
Торрент: Зарегистрирован [ 2015-10-08 00:27 ] · 622609A5F0AD561972C449247B06116FF79A1967

Скачать .torrent

Скачать

20 KB

Статус: проверено
Скачан: 1 раз
Размер: 3.88 GB
terms.php



Быстрый ответ

Имя:

      
Для отправки сообщений необходимо включить JavaScript
Показать сообщения:    

Текущее время: 11-Дек 05:20

Часовой пояс: UTC + 3


Вы можете начинать темы
Вы можете отвечать на сообщения
Вы не можете редактировать свои сообщения
Вы не можете удалять свои сообщения
Вы не можете голосовать в опросах
Вы не можете прикреплять файлы к сообщениям
Вы можете скачивать файлы