Симбиопсихотаксиплазм: Дубль 2 1/2 / Symbiopsychotaxiplasm: Take 2 1/2 (Уильям Гривз / William Greaves) [2005, США, Документальный, Экспериментальный, DVD9 (Custom)] + Sub Eng, Rus(Abris) + Original Eng / Criterion Collection #360


Статистика раздачи [Обновить пиров]
Размер:  6.28 GB   |    Зарегистрирован:  1 год 2 месяца   |    Скачан:  0 раз

Полного источника не было: Никогда

 
   
 
 
 

[Цитировать]

Симбиопсихотаксиплазм: Дубль 2 1/2 / Symbiopsychotaxiplasm: Take 2 1/2 / Criterion Collection#360
Страна: США
Жанр: Документальный, Экспериментальный
Год выпуска: 2005
Продолжительность: 01:39:38
Производитель: The Criterion Collection #360
Перевод: Субтитры
Cубтитры: Английские, Русские Abris
Оригинальная аудиодорожка: Английский
Премьера (мир): 30.03.2006
Режиссер: Уильям Гривз / William Greaves
Сценарий: Уильям ГривзПродюсер: Louise Archambault, Стив Бушеми, Стивен СодербергОператор: Генри Адебоноджо, Стивен Ларнер, Terrence McCartney FilgateМонтаж: Кристофер ОсборнВ ролях: Одри Хенигам, Шэннон Бейкер, Марсия Карп, Ндай Аде Сохна, Джонатан Гордон, Теренс МакКартни Филгейт, Боб Роузен, Фил Пармет, Стивен Ларнер, Уильям Гривз, Стив Бушеми
Описание: «Симбиопсихотаксиплазм: Дубль 2 ½» – это вторая часть фильма Уильяма Гривза, вышедшая почти через 30 лет после первой. В ней рассматривается история эксперимента, запущенного в 1968-ом году в нью-йоркском Центральном Парке, в ходе которого три съемочные группы одновременно документировали работу друг друга, события, происходящие вокруг, и импровизацию специально приглашенных актеров. Максимальная открытость режиссерского замысла и свобода всех участников процесса привели к тому, что после официального окончания съемок и отъезда актеров и режиссера съемочная группа не разъехалась, а самовольно продолжила снимать свое размышление о фильме, кино и реальности. Тогда фильм так и не вышел в прокат и только в 90-е Стивен Содерберг и Стив Бушеми оценили его по достоинству на кинофестивале и предложили Уильяму Гривзу выпустить первую часть на ДВД, а так же снять продолжение. В итоге Гривз перемонтировал снятые в 1968-ом материалы и иначе расставил акценты, а так же собрал всё тех же актеров и членов съемочной группы (и Стива Бушеми) и попытался вместе развить эксперимент, запущенный 30 лет назад, и достигнуть новых результатов, исследуя границы актерской техники психодрамы, проникающей в человеческие взаимоотношения, связь режиссера и актеров, власти и народа, Бога и человечества.
Доп. информация:Софт:PGCDemux (извлечение).
DVD-lab PRO 2, Subtitle Workshop (субтитры).
MuxMan (сборка). DvdReMakePro (финал).Исходник найден в сети.Описание и Русские субтитры Abrisвзяты из раздачи daft-digger http://teatrix.ru/viewtopic.php?t=4461 .Перевод и тайминг – Abris, подготовка субтитров – alex-kin.Русские субтитры включаются с пульта.
Реавторинг Нордер.Огромное Спасибо Всем, без чьей помощи этот релиз не состоялся бы!Бонусы: Бонусы: (Без перевода).Интервью с актером Steve Buscemi.Меню: Английский, анимированное, неозвученное.
Симбиопсихотаксиплазм. Дубль два на ВикипедииСэмпл: http://multi-up.com/926044
Тип релиза: DVD9 (Custom)
Контейнер: DVD-Video
Видео: NTSC 16:9 (720x480) VBR, Auto Letterboxed, 7476 Кбит/сек, 23,976 кадра/сек
Аудио: Английский: AC3, 1/0ch (Front:C ), 48.0 KHz, 224 Kbps (Оригинал)
Формат субтитров: prerendered (DVD/IDX+SUB)

Dvd Info

Title: Symbiopsychotaxiplasm Take 2?_DVD-9_Custom_Criterion_#360
Size: 6.28 Gb ( 6 587 180,00 KBytes ) - DVD-9
Enabled regions: 1, 2, 3, 4, 5, 6, 7, 8
VTS_01 :
Play Length: 01:39:38+00:00:21+{00:00:01}
Video: NTSC 16:9 (720x480) VBR, Auto Letterboxed
Audio:
English, AC3, 1/0 (C) ch, 224 kbps, Delay 0 mSec
Subtitles:
Russian
English
VTS_02 :
Play Length: 00:12:41
Video: NTSC 4:3 (720x480) VBR
Audio:
English, AC3, 1/0 (C) ch, 224 kbps, Delay 0 mSec

MediaInfo

Общее
Полное имя : F:\Symbiopsychotaxiplasm Take 2½_DVD-9_Custom_Criterion_#360\VIDEO_TS\VTS_01_1.VOB
Формат : MPEG-PS
Размер файла : 1024 Мбайт
Продолжительность : 18 м.
Режим общего битрейта : Переменный
Общий поток : 7856 Кбит/сек
Видео
Идентификатор : 224 (0xE0)
Формат : MPEG Video
Версия формата : Version 2
Профиль формата : Main@Main
Параметр BVOP формата : Да
Параметр матрицы формата : Выборочная
Параметр GOP формата : Variable
Продолжительность : 18 м.
Вид битрейта : Переменный
Битрейт : 7476 Кбит/сек
Максимальный битрейт : 9800 Кбит/сек
Ширина : 720 пикселей
Высота : 480 пикселей
Соотношение сторон : 16:9
Частота кадров : 23,976 кадра/сек
Стандарт вещания : NTSC
Цветовое пространство : YUV
Субдискретизация насыщенности : 4:2:0
Битовая глубина : 8 бит
Тип развёртки : Прогрессивная
Порядок развёртки : 2:3 Pulldown
Метод сжатия : С потерями
Бит/(Пиксели*Кадры) : 0.902
Временной код первого кадра : 02:22:30:00
Оригинал временного кода : Group of pictures header
Размер потока : 974 Мбайт (95%)
Аудио
Идентификатор : 189 (0xBD)-128 (0x80)
Формат : AC-3
Формат/Информация : Audio Coding 3
Расширение режима : CM (complete main)
Параметр Endianness формата : Big
Режим смешивания : DVD-Video
Продолжительность : 18 м.
Вид битрейта : Постоянный
Битрейт : 224 Кбит/сек
Каналы : 1 канал
Расположение каналов : Front: C
Частота : 48,0 КГц
Битовая глубина : 16 бит
Метод сжатия : С потерями
Размер потока : 29,2 Мбайт (3%)
Текст #1
Идентификатор : 189 (0xBD)-32 (0x20)
Формат : RLE
Формат/Информация : Run-length encoding
Режим смешивания : DVD-Video
Продолжительность : 18 м.
Текст #2
Идентификатор : 189 (0xBD)-33 (0x21)
Формат : RLE
Формат/Информация : Run-length encoding
Режим смешивания : DVD-Video
Продолжительность : 18 м.

Скриншоты меню

Скриншоты

Скриншоты доп. материалов

Полиграфия

Фильм 1:Симбиопсихотаксиплазм. Дубль один-http://teatrix.ru/viewtopic.php?t=4458Уважаемые пользователи!Найдите пару минут поблагодарить релизера и высказаться в топике раздачи.
[teatrix.ru].t4457.torrent 
Торрент: Зарегистрирован [ 2015-10-08 00:27 ] · 658330439D5DC5A8429351CCB7666F88918A19CB

Скачать .torrent

Скачать

33 KB

Статус: проверено
Скачан: 0 раз
Размер: 6.28 GB
terms.php



Быстрый ответ

Имя:

      
Для отправки сообщений необходимо включить JavaScript
Показать сообщения:    

Текущее время: 09-Дек 03:05

Часовой пояс: UTC + 3


Вы можете начинать темы
Вы можете отвечать на сообщения
Вы не можете редактировать свои сообщения
Вы не можете удалять свои сообщения
Вы не можете голосовать в опросах
Вы не можете прикреплять файлы к сообщениям
Вы можете скачивать файлы