Симбиопсихотаксиплазм. Дубль один / Symbiopsychotaxiplasm: Take One (Уильям Гривз / William Greaves) [1968, США, Документальный, Экспериментальный, DVD9 (Custom)] + Sub Eng, Rus(Abris) + Original Eng / Criterion Collection #360


Статистика раздачи [Обновить пиров]
Размер:  6.89 GB   |    Зарегистрирован:  1 год 2 месяца   |    Скачан:  0 раз

Полного источника не было: Никогда

 
   
 
 
 

[Цитировать]

Симбиопсихотаксиплазм. Дубль один / Symbiopsychotaxiplasm: Take One /Criterion Collection #360
Страна: США
Студия: Take One Productions
Жанр: Документальный, Экспериментальный
Год выпуска: 1968
Продолжительность: 01:15:20
Производитель: The Criterion Collection #360
Перевод: Субтитры
Cубтитры: Английские, Русские Abris
Оригинальная аудиодорожка: Английский
Премьера (мир): 24.09.2004
Режиссер: Уильям Гривз / William Greaves
Сценарий: Уильям ГривзПродюсер: Уильям Гривз, Мануэль Меламед, Manny MelandОператор: Стивен Ларнер, Terrence McCartney Filgate
Композитор: Майлз Дэвис
Монтаж: Уильям Гривз
В ролях: Патриция Рее Гилберт, Дон Феллоуз, Джонатан Гордон, Роберт Л. Розен, Уильям Гривз, Сьюзен Энспак, Audrey Heningham, Стивен Ларнер, Terrence McCartney Filgate, Maria Zeheri
Описание: Экспериментальный фильм американского независимого режиссёра Уильяма Гривза, который исследует границы и взаимосвязь тех элементов кино, которые принято противопоставлять: игровое и документальное, вымысел и реальность, контроль и спонтанность в творческом процессе.
Это фильм о том, как большая съемочная группа снимает кино в Центральном Парке. Одна съёмочная группа снимает постановочную сцену семейной ссоры, которую исполняют разные актеры, другая запечатлевает процесс этой съёмки, третья документирует съёмку первых двух, а также всё, что вокруг – прохожих, конную полицию, городских сумасшедших.
Все, что происходит при съемках, находится в тесном взаимодействии и влияет на конечный результат. Таким образом фильм открывает возможности импровизации в кино на всех уровнях: в режиссерском замысле, в актерской игре, в работе съемочной группы, в монтаже и так далее. И вся эта импровизация прекрасно смотрится под музыку Майлза Дэвиса, который создал саундтрек к фильму. Открытость и гибкость фильма и режиссерского замысла достигают того, что в определенный момент вся съемочная группа собирается вместе, отдельно от режиссера и актеров, чтобы обсудить фильм и вникнуть в его суть и снимает все это по собственной инициативе, чтобы это могло войти в фильм, хотя режиссер и не просил их об этом.
В итоге получается кино, познающее и творящее само себя, зеркало, глядящее в зеркало.

Доп. информация:Софт:PGCDemux (извлечение).
DVD-lab PRO 2, Subtitle Workshop (субтитры).
MuxMan (сборка). DvdReMakePro (финал).Исходник найден в сети.Описание и Русские субтитры Abrisвзяты из раздачи сидиирви http://teatrix.ru/viewtopic.php?t=4491. .Перевод и тайминг – Abris, подготовка субтитров – alex-kin.
Реавторинг Нордер.Огромное Спасибо Всем, без чьей помощи этот релиз не состоялся бы!Бонусы: Бонусы: (Без перевода).Документальный фильм о карьере Уильяма Гривза (01:01:12).Оригинальные трейлер .
Меню: Английский,анимированное,озвученное.
Симбиопсихотаксиплазм. Дубль один на ВикипедииСэмпл: http://multi-up.com/921642
Тип релиза: DVD9 (Custom)
Контейнер: DVD-Video
Видео: NTSC 4:3 (720x480) VBR, 6850 Кбит/сек, 23,976 кадра/сек
Аудио: Английский: AC3, 1/0ch (Front:C ), 48.0 KHz, 224 Kbps (Оригинал)
Формат субтитров: prerendered (DVD/IDX+SUB)

Dvd Info

Title: Symbiopsychotaxiplasm DVD-9_Custom_Criterion_#360
Size: 6.89 Gb ( 7 226 532,00 KBytes ) - DVD-9
Enabled regions: 1, 2, 3, 4, 5, 6, 7, 8
VTS_01 :
Play Length: 01:15:20+00:00:21+{00:00:01}
Video: NTSC 4:3 (720x480) VBR
Audio:
English, AC3, 1/0 (C) ch, 224 kbps, Delay 0 mSec
Subtitles:
English
Russian
VTS_02 :
Play Length: 01:01:12+00:01:21
Video: NTSC 4:3 (720x480) VBR
Audio:
English, AC3, 1/0 (C) ch, 224 kbps, Delay 0 mSec

MediaInfo

Общее
Полное имя : F:\Symbiopsychotaxiplasm DVD-9_Custom_Criterion_#360\VIDEO_TS\VTS_01_2.VOB
Формат : MPEG-PS
Размер файла : 1024 Мбайт
Продолжительность : 19 м.
Режим общего битрейта : Переменный
Общий поток : 7217 Кбит/сек
Видео
Идентификатор : 224 (0xE0)
Формат : MPEG Video
Версия формата : Version 2
Профиль формата : Main@Main
Параметр BVOP формата : Да
Параметр матрицы формата : Выборочная
Параметр GOP формата : Variable
Продолжительность : 19 м.
Вид битрейта : Переменный
Битрейт : 6850 Кбит/сек
Максимальный битрейт : 9800 Кбит/сек
Ширина : 720 пикселей
Высота : 480 пикселей
Соотношение сторон : 4:3
Частота кадров : 23,976 кадра/сек
Стандарт вещания : NTSC
Цветовое пространство : YUV
Субдискретизация насыщенности : 4:2:0
Битовая глубина : 8 бит
Тип развёртки : Прогрессивная
Порядок развёртки : 2:3 Pulldown
Метод сжатия : С потерями
Бит/(Пиксели*Кадры) : 0.827
Временной код первого кадра : 00:18:47:06
Оригинал временного кода : Group of pictures header
Размер потока : 972 Мбайт (95%)
Аудио
Идентификатор : 189 (0xBD)-128 (0x80)
Формат : AC-3
Формат/Информация : Audio Coding 3
Расширение режима : CM (complete main)
Параметр Endianness формата : Big
Режим смешивания : DVD-Video
Продолжительность : 19 м.
Вид битрейта : Постоянный
Битрейт : 224 Кбит/сек
Каналы : 1 канал
Расположение каналов : Front: C
Частота : 48,0 КГц
Битовая глубина : 16 бит
Метод сжатия : С потерями
Задержка видео : -322 мс.
Размер потока : 31,8 Мбайт (3%)
Текст #1
Идентификатор : 189 (0xBD)-32 (0x20)
Формат : RLE
Формат/Информация : Run-length encoding
Режим смешивания : DVD-Video
Продолжительность : 19 м.
Задержка видео : 233 мс.
Текст #2
Идентификатор : 189 (0xBD)-33 (0x21)
Формат : RLE
Формат/Информация : Run-length encoding
Режим смешивания : DVD-Video
Продолжительность : 19 м.
Задержка видео : 3 с. 837 мс.

Скриншоты меню

Скриншоты

Скриншоты доп. материалов

Полиграфия

Фильм 2:Симбиопсихотаксиплазм. Дубль два-http://teatrix.ru/viewtopic.php?t=4457
[teatrix.ru].t4458.torrent 
Торрент: Зарегистрирован [ 2015-10-08 00:27 ] · BC6FFFC1CF1C7EB30705D42AC7164F88E64B80AE

Скачать .torrent

Скачать

36 KB

Статус: проверено
Скачан: 0 раз
Размер: 6.89 GB
terms.php



Быстрый ответ

Имя:

      
Для отправки сообщений необходимо включить JavaScript
Показать сообщения:    

Текущее время: 11-Дек 07:07

Часовой пояс: UTC + 3


Вы можете начинать темы
Вы можете отвечать на сообщения
Вы не можете редактировать свои сообщения
Вы не можете удалять свои сообщения
Вы не можете голосовать в опросах
Вы не можете прикреплять файлы к сообщениям
Вы можете скачивать файлы