Бестиарий / Bestiaire / Bestiarium (Дени Коте / Denis Côté / Denis Cote) [2012, Канада, экспериментальный, DVDRip-AVC]


Статистика раздачи [Обновить пиров]
Размер:  1.24 GB   |    Зарегистрирован:  1 год 1 месяц   |    Скачан:  0 раз

Полного источника не было: Никогда

 
   
 
 
 

[Цитировать]

Бестиарий / Bestiaire-Страна: Канада
Жанр: экспериментальный
Год выпуска: 2012
Продолжительность: 01:11:58-Перевод: Не требуется
Cубтитры: нет
Оригинальная аудиодорожка: нет-Режиссер: Дени Коте / Denis Côté
В ролях: животные зоопарка-Описание: «Бестиарий» канадского визионера Дени Коте — идеальный фильм о животных, снятый с точки зрения... животных. Здесь нет никакого закадрового текста, а снято все так, будто за объективом камеры не стоит человек. Взгляд Коте воспроизводит взгляд тех, на кого он направлен: буйволов, антилоп, зебр, львов, гиен, умирающих от тоски, одиночества и тотального абсурда в квебекском сафари-парке, имитирующем африканскую саванну. Это портреты зверей, на которых они изображены так, как принято изображать людей и даже богов. Анималистская трагедия, в которой убийство животного с целью сделать из него чучело выглядит местью человека природе за собственное несовершенство. (с)-Доп. информация:
Дени Коте: «Я не могу делать только игровое кино. Например, мне очень нравится «Зоопарк». Я просто установил камеру и снимал животных. И мне кажется, это прекрасно – просто снимать животных! Ведь обычно животных мы видим на телевидении, как в National Geographic. И как правило, это информативные фильмы. Либо вы смотрите смешные видео о животных на youtube и смеетесь над ними. Но мы никогда не снимаем животных просто ради того, чтобы снять животных! Это очень наивно, но при этом очень ново, мне кажется. Мы привыкли, что видео о животных должны быть забавными, либо должны нести какую-то информацию – например, что ест аллигатор на завтрак. Но меня как раз интересует чистый и ясный взгляд на животных. Плюс, как я уже сказал, у меня есть и другая сторона: я люблю придумывать героев и рассказывать истории... мне комфортно в обеих ипостасях».-Качество видео: DVDRip-AVC
Формат видео: MKV
Видео: AVC, x264 , 720*384 (1,875:1), 23,976 кадр/сек, 1836 Кбит/сек, 0.277 bit/pixel
Аудио: AC-3, 640 Кбит/сек, 6 каналов, 48,0 КГц

MediaInfo

Формат : Matroska
Версия формата : Version 2
Размер файла : 1,24 Гбайт
Продолжительность : 1 ч. 11 м.
Общий поток : 2464 Кбит/сек
Программа кодирования : HandBrake 0.9.5
Библиотека кодирования : libmkv 0.6.4.1
Видео
Идентификатор : 1
Формат : AVC
Формат/Информация : Advanced Video Codec
Профиль формата : Main@L3.0
Параметр CABAC формата : Да
Параметр ReFrames формата : 4 кадра
Параметры GOP формата : M=3, N=56
Идентификатор кодека : V_MPEG4/ISO/AVC
Продолжительность : 1 ч. 11 м.
Битрейт : 1836 Кбит/сек
Ширина : 720 пикс.
Высота : 384 пикс.
Соотношение сторон : 1,875
Частота кадров : 23,976 кадр/сек
Цветовое пространство : YUV
Подвыборка цветности : 4:2:0
Битовая глубина : 8 бит
Тип развёртки : Прогрессивная
Бит/(Пиксели*Кадры) : 0.277
Размер потока : 914 Мбайт (72%)
Библиотека кодирования : x264 core 112
Настройки программы : cabac=1 / ref=2 / deblock=1:0:0 / analyse=0x1:0x111 / me=hex / subme=6 / psy=1 / psy_rd=1.00:0.00 / mixed_ref=0 / me_range=16 / chroma_me=1 / trellis=0 / 8x8dct=0 / cqm=0 / deadzone=21,11 / fast_pskip=1 / chroma_qp_offset=-2 / threads=3 / sliced_threads=0 / nr=0 / decimate=1 / interlaced=0 / constrained_intra=0 / bframes=2 / b_pyramid=2 / b_adapt=1 / b_bias=0 / direct=1 / weightb=0 / open_gop=0 / weightp=2 / keyint=240 / keyint_min=23 / scenecut=40 / intra_refresh=0 / rc_lookahead=40 / rc=abr / mbtree=1 / bitrate=1836 / ratetol=1.0 / qcomp=0.60 / qpmin=3 / qpmax=51 / qpstep=4 / ip_ratio=1.40 / aq=1:1.00
Язык : English
Основные цвета : BT.601-6 525, BT.1358 525, BT.1700 NTSC, SMPTE 170M
Характеристики трансфера : BT.709-5, BT.1361
Коэффициенты матрицы : BT.601-6 525, BT.1358 525, BT.1700 NTSC, SMPTE 170M
Аудио
Идентификатор : 2
Формат : AC-3
Формат/Информация : Audio Coding 3
Расширение режима : CM (complete main)
Идентификатор кодека : A_AC3
Продолжительность : 1 ч. 11 м.
Вид битрейта : Постоянный
Битрейт : 640 Кбит/сек
Каналы : 6 каналов
Расположение каналов : Front: L C R, Side: L R, LFE
Частота : 48,0 КГц
Битовая глубина : 16 бит
Метод сжатия : С потерями
Размер потока : 330 Мбайт (26%)
Язык : French
Меню
00:00:00.000 : Chapter 1
00:05:06.806 : Chapter 2
00:09:04.627 : Chapter 3
00:13:51.747 : Chapter 4
00:16:51.176 : Chapter 5
00:21:03.512 : Chapter 6
00:24:52.782 : Chapter 7
00:28:28.456 : Chapter 8
00:33:33.928 : Chapter 9
00:38:04.198 : Chapter 10
00:41:32.656 : Chapter 11
00:49:40.352 : Chapter 12
00:54:32.143 : Chapter 13
00:58:17.785 : Chapter 14
01:04:20.773 : Chapter 15
01:09:10.729 : Chapter 16
01:11:57.980 : Chapter 17
[teatrix.ru].t4459.torrent 
Торрент: Зарегистрирован [ 2015-10-08 00:27 ] · BD37E1E2CD973D48A1008B0F5D5BF4C63A201C87

Скачать .torrent

Скачать

13 KB

Статус: проверено
Скачан: 0 раз
Размер: 1.24 GB
terms.php



Быстрый ответ

Имя:

      
Для отправки сообщений необходимо включить JavaScript
Показать сообщения:    

Текущее время: 03-Дек 16:46

Часовой пояс: UTC + 3


Вы можете начинать темы
Вы можете отвечать на сообщения
Вы не можете редактировать свои сообщения
Вы не можете удалять свои сообщения
Вы не можете голосовать в опросах
Вы не можете прикреплять файлы к сообщениям
Вы можете скачивать файлы