Угольный забой / Coal Face (Альберто Кавальканти / Alberto Cavalcanti) [1935, Великобритания, документальный, короткометражный, DVDRip] + Sub Rus + Original Eng


Статистика раздачи [Обновить пиров]
Размер:  176 MB   |    Зарегистрирован:  1 год 2 месяца   |    Скачан:  0 раз

Полного источника не было: Никогда

 
   
 
 
 

[Цитировать]

Угольный забой / Coal Face
Страна: Великобритания
Жанр: документальный, короткометражный
Год выпуска: 1935
Продолжительность: 00:11:11
Перевод: Субтитры (перевод мой)
Cубтитры: русские, английские
Оригинальная аудиодорожка: английский
Режиссер: Альберто Кавальканти/Alberto Cavalcanti
Описание: Один из самых модернистских фильмов, подробно рассказывающий об угольной промышленности Великобритании.
Качество видео: DVDRip
Формат видео: AVI
Видео: XviD build 50, 640x480 (1.33:1), 25 fps, 1863 kbps
Аудио: AC3 Dolby Digital, 48 kHz, 320 kbps, 2/0 (L,R) ch
Формат субтитров: softsub (SRT)

MediaInfo

General
Complete name : D:\Кино\Coal Face\Coal.Face.1935.DVDRip.XviD.AC3.avi
Format : AVI
Format/Info : Audio Video Interleave
File size : 176 MiB
Duration : 11mn 11s
Overall bit rate : 2 192 Kbps
Writing application : VirtualDubMod 1.5.10.2 (build 2540/release)
Writing library : VirtualDubMod build 2540/release
Video
ID : 0
Format : MPEG-4 Visual
Format profile : Advanced Simple@L5
Format settings, BVOP : No
Format settings, QPel : No
Format settings, GMC : No warppoints
Format settings, Matrix : Default (MPEG)
Codec ID : XVID
Codec ID/Hint : XviD
Duration : 11mn 11s
Bit rate : 1 864 Kbps
Width : 640 pixels
Height : 480 pixels
Display aspect ratio : 4:3
Frame rate : 25.000 fps
Color space : YUV
Chroma subsampling : 4:2:0
Bit depth : 8 bits
Scan type : Progressive
Compression mode : Lossy
Bits/(Pixel*Frame) : 0.243
Stream size : 149 MiB (85%)
Writing library : XviD 1.2.1 (UTC 2008-12-04)
Audio
ID : 1
Format : AC-3
Format/Info : Audio Coding 3
Mode extension : CM (complete main)
Format settings, Endianness : Big
Codec ID : 2000
Duration : 11mn 9s
Bit rate mode : Constant
Bit rate : 320 Kbps
Channel(s) : 2 channels
Channel positions : Front: L R
Sampling rate : 48.0 KHz
Bit depth : 16 bits
Compression mode : Lossy
Delay relative to video : 20ms
Stream size : 25.5 MiB (15%)
Alignment : Split accross interleaves
Interleave, duration : 40 ms (1.00 video frame)
Interleave, preload duration : 500 ms

Скриншоты

Пример субтитров

1
00:00:33,880 --> 00:00:36,608
Добыча угля - основная отрасль
промышленности Британии.
2
00:00:39,760 --> 00:00:44,363
На угольных шахтах страны
занято 750 тысяч человек.
3
00:00:46,720 --> 00:00:50,437
Копры, подъемные машины,
ленточные конвейеры, углемойки,
4
00:00:50,560 --> 00:00:53,561
сортировочные, породные отвалы.
5
00:00:55,120 --> 00:00:57,359
Это поверхностный комплекс любой шахты.
6
00:01:01,920 --> 00:01:04,318
Порода - побочный продукт добычи угля.
7
00:01:05,840 --> 00:01:08,727
Она должна быть отделена от угля.
8
00:01:08,840 --> 00:01:12,364
По канатной дороге порода доставляется на отвалы.
9
00:01:16,880 --> 00:01:19,767
Добытый уголь промывается и сортируется.
10
00:01:24,160 --> 00:01:25,967
Основные продукты переработки угля...
11
00:01:26,080 --> 00:01:30,877
это газ, кокс, смолы,
12
00:01:31,000 --> 00:01:34,796
красители, масла, бензол.
13
00:01:38,960 --> 00:01:42,438
Основные угледобывающие районы
находятся в Южном Уэльсе,
14
00:01:42,560 --> 00:01:45,765
Центральной Шотландии,
Дареме и Нортамберленде,
15
00:01:45,880 --> 00:01:48,608
Йоркшире, Ланкашире и Мидленде.
16
00:01:49,320 --> 00:01:54,162
Южный Уэльс, 130 тысяч человек,
37 миллионов тонн угля в год.
17
00:01:55,160 --> 00:01:59,479
Центральная Шотландия,
83 тысяч человек, 31 миллион тонн.
18
00:02:00,440 --> 00:02:06,521
Дарем и Нортамберленд,
146 тысяч человек, 46 миллионов тонн.
19
00:02:07,600 --> 00:02:13,999
Йоркшир и Ланкашир,
200 тысяч человек, 56 миллионов тонн.
20
00:02:14,120 --> 00:02:19,042
Мидленд,
170 тысяч человек, 50 миллионов тонн.
[teatrix.ru].t4460.torrent 
Торрент: Зарегистрирован [ 2015-10-08 00:27 ] · 7B99D20E5C312CDA3E5F0677E0FBE807771E9A11

Скачать .torrent

Скачать

14 KB

Статус: проверено
Скачан: 0 раз
Размер: 176 MB
terms.php



Быстрый ответ

Имя:

      
Для отправки сообщений необходимо включить JavaScript
Показать сообщения:    

Текущее время: 10-Дек 11:56

Часовой пояс: UTC + 3


Вы можете начинать темы
Вы можете отвечать на сообщения
Вы не можете редактировать свои сообщения
Вы не можете удалять свои сообщения
Вы не можете голосовать в опросах
Вы не можете прикреплять файлы к сообщениям
Вы можете скачивать файлы