Симбиопсихотаксиплазм: Дубль 2 1/2 / Symbiopsychotaxiplasm: Take 2 1/2 (Уильям Гривз / William Greaves) [2005, США, экспериментальный, DVDRip] + Sub Rus + Original Eng


Статистика раздачи [Обновить пиров]
Размер:  1.27 GB   |    Зарегистрирован:  1 год 1 месяц   |    Скачан:  0 раз

Полного источника не было: Никогда

 
   
 
 
 

[Цитировать]

Симбиопсихотаксиплазм: Дубль 2 1/2 / Symbiopsychotaxiplasm: Take 2 1/2
Страна: США
Жанр: экспериментальный
Год выпуска: 2005
Продолжительность: 01:39:43
Перевод: Субтитры
Cубтитры: русские
Оригинальная аудиодорожка: английский
Режиссер: Уильям Гривз / William Greaves
В ролях: Одри Хенигам/Audrey Heningham, Шэннон Бейкер/Shannon Baker, Марсия Карп/Marcia Karp, Ндай Аде Сохна/Ndeye Ade Sokhna, Джонатан Гордон/Jonathan Gordon, Теренс МакКартни Филгейт/Terrence McCartney Filgate, Боб Роузен/Bob Rosen, Фил Пармет/Phil Parmet, Стивен Ларнер/Stevan Larner, Уильям Гривз/William Greaves, Стив Бушеми/Steve Buscemi
Описание: «Симбиопсихотаксиплазм: Дубль 2 ½» – это вторая часть фильма Уильяма Гривза, вышедшая почти через 30 лет после первой. В ней рассматривается история эксперимента, запущенного в 1968-ом году в нью-йоркском Центральном Парке, в ходе которого три съемочные группы одновременно документировали работу друг друга, события, происходящие вокруг, и импровизацию специально приглашенных актеров. Максимальная открытость режиссерского замысла и свобода всех участников процесса привели к тому, что после официального окончания съемок и отъезда актеров и режиссера съемочная группа не разъехалась, а самовольно продолжила снимать свое размышление о фильме, кино и реальности. Тогда фильм так и не вышел в прокат и только в 90-е Стивен Содерберг и Стив Бушеми оценили его по достоинству на кинофестивале и предложили Уильяму Гривзу выпустить первую часть на ДВД, а так же снять продолжение. В итоге Гривз перемонтировал снятые в 1968-ом материалы и иначе расставил акценты, а так же собрал всё тех же актеров и членов съемочной группы (и Стива Бушеми) и попытался вместе развить эксперимент, запущенный 30 лет назад, и достигнуть новых результатов, исследуя границы актерской техники психодрамы, проникающей в человеческие взаимоотношения, связь режиссера и актеров, власти и народа, Бога и человечества.
Первую часть «Симбиопсихотаксиплазм. Дубль один» можно скачать по ссылке http://teatrix.ru/viewtopic.php?t=4491
Доп. информация: Перевод и тайминг – Abris, подготовка субтитров – alex-kin.
Сэмпл: http://multi-up.com/919026
Качество видео: DVDRip
Формат видео: AVI
Видео: XviD build 46 at 1593 kbps, 0.20 bit/pixel, 640x352 (1.82:1) at 23.976 fps
Аудио: AC3 Dolby Digital at 224 kbps, 1/0 (C) ch, 48 kHz
Формат субтитров: softsub (SRT)

MediaInfo

General
Complete name : William Greaves_Symbiopsychotaxiplasm - Take 2 (2005).avi
Format : AVI
Format/Info : Audio Video Interleave
File size : 1.27 GiB
Duration : 1h 39mn
Overall bit rate : 1 827 Kbps
Writing application : VirtualDubMod 1.4.13
Writing library : VirtualDub build 25854/release
Video
ID : 0
Format : MPEG-4 Visual
Format profile : Advanced Simple@L5
Format settings, BVOP : 1
Format settings, QPel : No
Format settings, GMC : No warppoints
Format settings, Matrix : Default (MPEG)
Codec ID : XVID
Codec ID/Hint : XviD
Duration : 1h 39mn
Bit rate : 1 594 Kbps
Width : 640 pixels
Height : 352 pixels
Display aspect ratio : 16:9
Frame rate : 23.976 fps
Color space : YUV
Chroma subsampling : 4:2:0
Bit depth : 8 bits
Scan type : Progressive
Compression mode : Lossy
Bits/(Pixel*Frame) : 0.295
Stream size : 1.11 GiB (87%)
Writing library : XviD 1.1.2 (UTC 2006-11-01)
Audio
ID : 1
Format : AC-3
Format/Info : Audio Coding 3
Mode extension : CM (complete main)
Codec ID : 2000
Duration : 1h 39mn
Bit rate mode : Constant
Bit rate : 224 Kbps
Channel(s) : 1 channel
Channel positions : Front: C
Sampling rate : 48.0 KHz
Bit depth : 16 bits
Compression mode : Lossy
Delay relative to video : 19ms
Stream size : 160 MiB (12%)
Alignment : Split accross interleaves
Interleave, duration : 42 ms (1.00 video frame)
Interleave, preload duration : 500 ms

Фрагмент субтитров

829
00:56:36,400 --> 00:56:38,407
Тогда не было фильма
под названием "Симбио..."
830
00:56:38,702 --> 00:56:41,823
Мы снимали только 3 дня
под таким названием,
831
00:56:42,105 --> 00:56:44,130
тогда и фильма-то еще не было.
832
00:56:44,433 --> 00:56:47,133
Тогда не было Стива Бушеми,
не было мистификации,
833
00:56:47,430 --> 00:56:49,701
не было Саусгэмптонского
фестиваля,
834
00:56:49,999 --> 00:56:53,205
не было ничего, что нам было бы
точно известно о фильме...
835
00:56:53,506 --> 00:56:55,505
Даже те из присутствующих здесь,
кто не был там,
836
00:56:55,806 --> 00:56:57,510
знают что-то о "Симбио...".
837
00:56:57,800 --> 00:57:01,105
Это говорит им о чем-то,
а в 68-ом мы ничего этого не знали.
838
00:57:01,402 --> 00:57:04,913
И тогда у нас возник вполне
закономерный вопрос.
839
00:57:05,205 --> 00:57:08,079
Разумный, закономерный,
профессиональный вопрос:
840
00:57:08,405 --> 00:57:10,646
"Понимает ли наш друг
и коллега, что он делает?"
841
00:57:10,945 --> 00:57:13,694
Восстание съемочной группы
842
00:57:13,999 --> 00:57:19,131
сыграло решающую роль
в том фильме,
843
00:57:19,400 --> 00:57:24,606
оно задало ему конфликт.
844
00:57:24,901 --> 00:57:26,306
Когда фильм только начинается,
845
00:57:26,704 --> 00:57:29,810
ты думаешь:
"Что это за чудные ребята?",
846
00:57:30,117 --> 00:57:32,104
а потом, когда уже видишь
восстание, ты понимаешь:
847
00:57:32,407 --> 00:57:34,644
"Здесь происходит что-то
невероятное".
848
00:57:34,745 --> 00:57:38,082
Все это провоцирует
мощный конфликт.
849
00:57:38,402 --> 00:57:42,752
Что Билл собирается делать, чтобы
достигнуть подобного конфликта?

Скриншот c названием фильма

Скриншоты

[teatrix.ru].t4461.torrent 
Торрент: Зарегистрирован [ 2015-10-08 00:27 ] · FA15631AB8C39EC5C6E5F00E7A44A0D99DE988D6

Скачать .torrent

Скачать

13 KB

Статус: проверено
Скачан: 0 раз
Размер: 1.27 GB
terms.php



Быстрый ответ

Имя:

      
Для отправки сообщений необходимо включить JavaScript
Показать сообщения:    

Текущее время: 07-Дек 17:25

Часовой пояс: UTC + 3


Вы можете начинать темы
Вы можете отвечать на сообщения
Вы не можете редактировать свои сообщения
Вы не можете удалять свои сообщения
Вы не можете голосовать в опросах
Вы не можете прикреплять файлы к сообщениям
Вы можете скачивать файлы