Индия / India: Matri Bhumi (Роберто Росселлини / Roberto Rossellini) [1959, Италия, Франция, документальный, драма, DVDRip] VO + Original Fre


Статистика раздачи [Обновить пиров]
Размер:  1.18 GB   |    Зарегистрирован:  1 год 1 месяц   |    Скачан:  0 раз

Полного источника не было: Никогда

 
   
 
 
 

[Цитировать]

Индия / India: Matri Bhumi
Страна: Италия, Франция
Жанр: документальный, драма
Год выпуска: 1959
Продолжительность: 1:30:24
Перевод: Профессиональный (одноголосый закадровый) - студия "Лексикон" по заказу канала "24 Док"
Cубтитры: нет
Оригинальная аудиодорожка: французский
Режиссер: Роберто Росселлини / Roberto Rossellini
Описание: Документальный фильм 1959 года, снятый легендарным Роберто Росселини.
Автор смотрит на страну глазами путешественника, а не исследователя, но все же успевает многое рассказать зрителю и об ее истории, и о современной жизни. Рассказчик восхищается многообразием и богатством индийской культуры. По его мнению, «Индия – это калейдоскоп рас, отличающихся друг от друга языками и обычаями».
Индийцы – на удивление спокойный народ, и именно это спокойствие располагает к философии, самосовершенствованию и духовному развитию. Это нация, умеющая хранить традиции и приспосабливаться к современным технологиям. Впрочем, древние ремесла живы в индийской культуре: например, в фильме показано, как слоны валят деревья и тащат бревна. Работают индийцы в полную силу, и отдыхают тоже – устраивают уличные праздники и пышные свадьбы, ходят в кукольный театр, катаются на каруселях, смотрят уличные представления. Это удивительная, самобытная и жизнерадостная страна, завораживающая путешественников своей красотой и заряжающая энергией.
Доп. информация:

Фильмография Роберто Росселлини
Качество видео: DVDRip (by maximer@KG)
Формат видео: AVI
Видео: 640x480 (1.33:1), 25 fps, XviD build 50 ~1595 kbps avg, 0.21 bit/pixel
Аудио 1: 48 kHz, MPEG Layer 3, 2 ch, ~128.00 kbps avg [RUS]
Аудио 2: 48 kHz, MPEG Layer 3, 2 ch, ~128.00 kbps avg [FRE]

MediaInfo

GeneralComplete name : ...\Rossellini Roberto - India Matri Bhumi (1959).aviFormat : AVIFormat/Info : Audio Video InterleaveFile size : 1.18 GiBDuration : 1h 30mnOverall bit rate : 1 867 KbpsWriting application : VirtualDubMod 1.5.4.1 (build 2178/release)Writing library : VirtualDubMod build 2178/release
VideoID : 0Format : MPEG-4 VisualFormat profile : Advanced Simple@L5Format settings, BVOP : 1Format settings, QPel : NoFormat settings, GMC : No warppointsFormat settings, Matrix : Default (MPEG)Codec ID : XVIDCodec ID/Hint : XviDDuration : 1h 30mnBit rate : 1 596 KbpsWidth : 640 pixelsHeight : 480 pixelsDisplay aspect ratio : 4:3Frame rate : 25.000 fpsColor space : YUVChroma subsampling : 4:2:0Bit depth : 8 bitsScan type : ProgressiveCompression mode : LossyBits/(Pixel*Frame) : 0.208Stream size : 1.01 GiB (86%)Writing library : XviD 1.2.1 (UTC 2008-12-04)
Audio #1ID : 1Format : MPEG AudioFormat version : Version 1Format profile : Layer 3Mode : Joint stereoMode extension : MS StereoCodec ID : 55Codec ID/Hint : MP3Duration : 1h 30mnBit rate mode : ConstantBit rate : 128 KbpsChannel(s) : 2 channelsSampling rate : 48.0 KHzCompression mode : LossyStream size : 82.8 MiB (7%)Alignment : Aligned on interleavesInterleave, duration : 40 ms (1.00 video frame)Interleave, preload duration : 504 msWriting library : LAMEЄ
Audio #2ID : 2Format : MPEG AudioFormat version : Version 1Format profile : Layer 3Mode : Joint stereoCodec ID : 55Codec ID/Hint : MP3Duration : 1h 30mnBit rate mode : ConstantBit rate : 128 KbpsChannel(s) : 2 channelsSampling rate : 48.0 KHzCompression mode : LossyStream size : 82.8 MiB (7%)Alignment : Aligned on interleavesInterleave, duration : 40 ms (1.00 video frame)Interleave, preload duration : 504 ms
[teatrix.ru].t4474.torrent 
Торрент: Зарегистрирован [ 2015-10-08 00:27 ] · 07E5392B4CA8A884144CE7C526F804FE7971E7EE

Скачать .torrent

Скачать

12 KB

Статус: проверено
Скачан: 0 раз
Размер: 1.18 GB
terms.php



Быстрый ответ

Имя:

      
Для отправки сообщений необходимо включить JavaScript
Показать сообщения:    

Текущее время: 04-Дек 02:55

Часовой пояс: UTC + 3


Вы можете начинать темы
Вы можете отвечать на сообщения
Вы не можете редактировать свои сообщения
Вы не можете удалять свои сообщения
Вы не можете голосовать в опросах
Вы не можете прикреплять файлы к сообщениям
Вы можете скачивать файлы