Энди Уорхол / Andy Warhol: A Documentary Film (Рик Бёрнс / Ric Burns) [2006, США, документальный, биография, DVB] DVO (Селена Интернешнл)


Статистика раздачи [Обновить пиров]
Размер:  4.83 GB   |    Зарегистрирован:  1 год 2 месяца   |    Скачан:  0 раз

Полного источника не было: Никогда

 
   
 
 
 

[Цитировать]

Энди Уорхол
Andy Warhol: A Documentary Film- Страна: США
Жанр: документальный, биография
Год выпуска: 2006
Продолжительность: 04:02:35 (01:00:32 + 00:57:53 + 00:59:22 + 01:04:48)Перевод: Профессиональный (двухголосый закадровый) (Кинокомпания "Селена Интернешнл" по закату телеканала "24ДОК")
Cубтитры: нет
Оригинальная аудиодорожка: нет
Режиссер: Рик Бёрнс / Ric Burns
В ролях: Энди Уорхол / Andy Warhol, Сальвадор Дали / Salvador Dalí, Кэнди Дарлинг / Candy Darling, Боб Дилан / Bob Dylan, Пэт Хэкетт / Pat Hackett, Деннис Хоппер / Dennis Hopper, Пол Моррисси / Paul Morrissey, Эди Седжвик / Edie Sedgwick, Холли Вудлаун / Holly Woodlawn
Описание: Вступительное слово главного редактора журнала "Interview Russia" Алены Долецкой.
История самого популярного и, пожалуй, самого непонятого художника второй половины XX века. Создатели фильма исследуют творчество Энди Уорхола с конца 40-х до его смерти в 1987 году. Энди Уорхолу, в его безудержном желании выйти за рамки обыденного, удалось отразить в искусстве реалии современной жизни. Он стал настоящим пророком одного из самых радикальных экспериментов в истории американской культуры, разрушив барьер между искусством и коммерцией. (анонс канала "24ДОК")
Доп. информация: Запись со спутника (телеканал "24ДОК"). 4-х-серийный фильм.
Номинация Satellite Award 2006 на лучший документальный фильм на DVD.
Информация: http://www.imdb.com/title/tt0862644/
Сэмпл: http://multi-up.com/914357
Качество видео: DVB
Формат видео: MPEG-PS
Видео: MPEG Video 2, 720x576@768x576 (4:3), 25 fps, ~2197 kbps avg, 0.212 bit/pixel
Аудио: 48 kHz, MPEG Audio 2, 2 ch, ~192.00 kbps avg

MediaInfo

Полное имя : H:\My Torrents\[apreder]Andy_Warhol_A_Documentary(2006)DVB\[apreder]Andy_Warhol_A_Documentary_Pt.1(2006)DVB.mpgФормат : MPEG-PSРазмер файла : 1,03 ГбайтПродолжительность : 1 ч. 0 м.Режим общего битрейта : ПеременныйОбщий поток : 2437 Кбит/сек
ВидеоИдентификатор : 224 (0xE0)Формат : MPEG VideoВерсия формата : Version 2Профиль формата : Main@MainПараметр BVOP формата : ДаПараметр матрицы формата : ВыборочнаяПараметр GOP формата : VariableПродолжительность : 1 ч. 0 м.Вид битрейта : ПеременныйБитрейт : 2197 Кбит/секШирина : 720 пикселейВысота : 576 пикселейСоотношение сторон : 4:3Частота кадров : 25,000 кадров/секСтандарт вещания : PALЦветовое пространство : YUVСубдискретизация насыщенности : 4:2:0Битовая глубина : 8 битТип развёртки : ЧересстрочнаяПорядок развёртки : Верхнее поле первоеМетод сжатия : С потерямиБит/(Пиксели*Кадры) : 0.212Временной код первого кадра : 00:00:00:00Оригинал временного кода : Group of pictures headerРазмер потока : 952 Мбайт (90%)
АудиоИдентификатор : 192 (0xC0)Формат : MPEG AudioВерсия формата : Version 1Профиль формата : Layer 2Продолжительность : 1 ч. 0 м.Вид битрейта : ПостоянныйБитрейт : 192 Кбит/секКаналы : 2 каналаЧастота : 48,0 КГцМетод сжатия : С потерямиРазмер потока : 83,2 Мбайт (8%)

Скриншот c названием фильма

Скриншоты


Резервные скриншоты


-1'021/1'003√
[teatrix.ru].t4475.torrent 
Торрент: Зарегистрирован [ 2015-10-08 00:27 ] · 00EB8F7F127DA5B3F428AF80728E9FF14D8C4E8C

Скачать .torrent

Скачать

25 KB

Статус: проверено
Скачан: 0 раз
Размер: 4.83 GB
terms.php



Быстрый ответ

Имя:

      
Для отправки сообщений необходимо включить JavaScript
Показать сообщения:    

Текущее время: 10-Дек 08:04

Часовой пояс: UTC + 3


Вы можете начинать темы
Вы можете отвечать на сообщения
Вы не можете редактировать свои сообщения
Вы не можете удалять свои сообщения
Вы не можете голосовать в опросах
Вы не можете прикреплять файлы к сообщениям
Вы можете скачивать файлы