Киногид извращенца: Идеология / The Pervert\'s Guide to Ideology (Софи Файнс / Sophie Fiennes) [2012, Ирландия, Великобритания, документальный, киноведение, психоанализ, DVDRip] VO (Лицензия) + Original Eng


Статистика раздачи [Обновить пиров]
Размер:  1.91 GB   |    Зарегистрирован:  1 год 2 месяца   |    Скачан:  0 раз

Полного источника не было: Никогда

 
   
 
 
 

[Цитировать]

Киногид извращенца: Идеология / The Pervert's Guide to Ideology
Страна: Ирландия, Великобритания
Жанр: документальный, киноведение, психоанализ
Год выпуска: 2012
Продолжительность: 02:10:19
Перевод: Одноголосый закадровый [лицензия]
Cубтитры: нет
Оригинальная аудиодорожка: английский
Режиссер: Софи Файнс / Sophie Fiennes
В ролях: Славой Жижек
Описание: Продолжение "Киногида извращенца" известного словенского философа Славоя Жижека. Здесь в отличие от первого фильма видиоряд используется практически исключительно для иллюстрации идей Жижека. Кроме кадров из фильмов присутствуют концертное видео Rammstein и лондонских беспорядков 2011 года.

список фильмов

Triumph of the Will (1935)
The Eternal Jew (1940)
Brief Encounter (1945)
The Fall of Berlin (1950)
The Searchers (1956)
West Side Story (1961)
The Sound of Music (1965)
Loves of a Blonde (1965)
Seconds (1966)
The Firemen's Ball (1967)
If.... (1969)
MASH (1970)
Zabriskie Point (1970)
Cabaret (1972)
A Clockwork Orange (1971)
Jaws (1975)
Taxi Driver (1976)
Brazil (1985)
Full Metal Jacket (1987)
The Last Temptation of Christ (1988)
They Live (1988)
Titanic (1997)
I Am Legend (2007)
The Dark Knight (2008)
Субтитров нет
Качество видео: DVDRip
Формат видео: MP4
Видео: x264 High@L3.0, 1 803 Kbps, 688x576, 4x3, 25.000 fps
Аудио: RU AAC VBR, 162 Kbps, 2ch
Аудио 2: EN AAC VBR, 128 Kbps, 2ch

MediaInfo

General
Complete name : E:\cin\The.Pervert's.Guide.To.Ideology.2012.mp4
Format : MPEG-4
Format profile : Base Media
Codec ID : isom
File size : 1.91 GiB
Duration : 2h 10mn
Overall bit rate : 2 098 Kbps
Encoded date : UTC 2013-10-09 22:27:52
Tagged date : UTC 2013-10-09 22:27:52
Video
ID : 1
Format : AVC
Format/Info : Advanced Video Codec
Format profile : High@L3.0
Format settings, CABAC : Yes
Format settings, ReFrames : 4 frames
Codec ID : avc1
Codec ID/Info : Advanced Video Coding
Duration : 2h 10mn
Bit rate mode : Variable
Bit rate : 1 803 Kbps
Maximum bit rate : 7 622 Kbps
Width : 688 pixels
Height : 576 pixels
Display aspect ratio : 4:3
Frame rate mode : Variable
Frame rate : 25.000 fps
Minimum frame rate : 8.333 fps
Maximum frame rate : 25.000 fps
Resolution : 24 bits
Colorimetry : 4:2:0
Scan type : Progressive
Bits/(Pixel*Frame) : 0.182
Stream size : 1.64 GiB (86%)
Title : Video
Writing library : x264 core 120
Encoding settings : cabac=1 / ref=3 / deblock=1:0:0 / analyse=0x3:0x113 / me=hex / subme=7 / psy=1 / psy_rd=1.00:0.00 / mixed_ref=1 / me_range=16 / chroma_me=1 / trellis=1 / 8x8dct=1 / cqm=0 / deadzone=21,11 / fast_pskip=1 / chroma_qp_offset=-2 / threads=6 / sliced_threads=0 / nr=0 / decimate=1 / interlaced=0 / bluray_compat=0 / constrained_intra=0 / bframes=3 / b_pyramid=2 / b_adapt=1 / b_bias=0 / direct=1 / weightb=1 / open_gop=0 / weightp=2 / keyint=250 / keyint_min=25 / scenecut=40 / intra_refresh=0 / rc_lookahead=40 / rc=crf / mbtree=1 / crf=20.0 / qcomp=0.60 / qpmin=3 / qpmax=69 / qpstep=4 / ip_ratio=1.40 / aq=1:1.00
Encoded date : UTC 2013-05-14 16:21:55
Tagged date : UTC 2013-10-09 22:28:54
Color primaries : BT.601-6 525, BT.1358 525, BT.1700 NTSC, SMPTE 170M
Transfer characteristics : BT.709-5, BT.1361
Matrix coefficients : BT.601-6 525, BT.1358 525, BT.1700 NTSC, SMPTE 170M
Audio #1
ID : 2
Format : AAC
Format/Info : Advanced Audio Codec
Format version : Version 4
Format profile : LC
Format settings, SBR : No
Codec ID : 40
Duration : 2h 10mn
Bit rate mode : Variable
Bit rate : 162 Kbps
Maximum bit rate : 252 Kbps
Channel(s) : 2 channels
Channel positions : L R
Sampling rate : 48.0 KHz
Resolution : 16 bits
Stream size : 151 MiB (8%)
Language : Russian
Encoded date : UTC 2013-10-09 22:28:46
Tagged date : UTC 2013-10-09 22:28:54
Audio #2
ID : 3
Format : AAC
Format/Info : Advanced Audio Codec
Format version : Version 4
Format profile : LC
Format settings, SBR : No
Codec ID : 40
Duration : 2h 10mn
Bit rate mode : Variable
Bit rate : 128 Kbps
Maximum bit rate : 150 Kbps
Channel(s) : 2 channels
Channel positions : L R
Sampling rate : 48.0 KHz
Resolution : 16 bits
Stream size : 119 MiB (6%)
Language : English
Encoded date : UTC 2013-10-09 22:28:50
Tagged date : UTC 2013-10-09 22:28:54

Скриншот c названием фильма

Скриншоты

[teatrix.ru].t4476.torrent 
Торрент: Зарегистрирован [ 2015-10-08 00:27 ] · 22363DE2D6348BEAEC87636E791DF87B72CD6ED0

Скачать .torrent

Скачать

20 KB

Статус: проверено
Скачан: 0 раз
Размер: 1.91 GB
terms.php



Быстрый ответ

Имя:

      
Для отправки сообщений необходимо включить JavaScript
Показать сообщения:    

Текущее время: 09-Дек 06:53

Часовой пояс: UTC + 3


Вы можете начинать темы
Вы можете отвечать на сообщения
Вы не можете редактировать свои сообщения
Вы не можете удалять свои сообщения
Вы не можете голосовать в опросах
Вы не можете прикреплять файлы к сообщениям
Вы можете скачивать файлы