Повесть о Коне Итикава / Filmful Life: The Kon Ichikawa Story / Ichikawa Kon monogatari (Сюндзи Иваи / Shunji Iwai) [2006, Япония, документальный, DVDRip] (Rus) (Eng) Sub


Статистика раздачи [Обновить пиров]
Размер:  702 MB   |    Зарегистрирован:  1 год 2 месяца   |    Скачан:  0 раз

Полного источника не было: Никогда

 
   
 
 
 

[Цитировать]

Повесть о Коне Итикава / Filmful Life: The Kon Ichikawa Story / Ichikawa Kon monogatari
Страна: Япония
Жанр: документальный
Год выпуска: 2006
Продолжительность: 01:22:33
Перевод 1: Субтитры русские - дед_сто_лет©
Перевод 2: Субтитры английские
Cубтитры: русский
Оригинальная аудиодорожка: японский
Режиссер: Сюндзи Иваи / Shunji Iwai
Описание: Фильм о великом японском режиссере Коне Итикава (1915-2008) был снят ещё при его жизни. Вторым важнейшем героем повестования стала его талантливая жена Натто Вада (наст. имя Юмико Моги, 1920—1983). В этой экспериментальной ленте режиссер использует спорный прием, когда дикторский текст отсутствует, а повествование ведется с помощью множества кадров с титрами и коллажей из фильмов и фото. Преимуществом фильма является то, что автор был лично знаком с режиссером.©
> > > > > > >
Качество видео: DVDRip
Формат видео: AVI
Видео: 704x400 (1.76:1), 23.976 fps, XviD MPEG-4 ~733 kbps avg, 0.11 bit/pixel
Аудио: 48 kHz, AC3 Dolby Digital, 2/0 (L,R) ch, ~448 kbps
Формат субтитров: softsub (SRT)
Доп. информация о субтитрах: дед_сто_лет

Пример субтитров

339
00:24:15,153 --> 00:24:17,986
Военное командование...
340
00:24:18,156 --> 00:24:21,125
положило его на полку.
341
00:24:25,964 --> 00:24:28,797
Волнения послевоенных лет...
342
00:24:28,967 --> 00:24:31,800
захватили студию.
343
00:24:31,970 --> 00:24:34,803
Случилась...
344
00:24:34,973 --> 00:24:37,806
знаменитая...
345
00:24:37,976 --> 00:24:40,809
"Забастовка Тохо".
346
00:24:40,979 --> 00:24:43,948
Сотрудники студии примкнули к левым.
347
00:24:49,988 --> 00:24:52,513
Война закончилась...
348
00:24:52,691 --> 00:24:55,660
но людям было не до кино.
349
00:25:01,700 --> 00:25:04,529
Именно тогда...
350
00:25:04,703 --> 00:25:07,672
он встретил "её"...
351
00:25:12,377 --> 00:25:15,346
женщину своей мечты...
352
00:25:21,653 --> 00:25:27,592
Натто Вада.
353
00:25:28,793 --> 00:25:31,421
Настоящее имя: Юмико Моги
354
00:25:32,330 --> 00:25:35,163
У неё были удивительные глаза.
355
00:25:35,333 --> 00:25:38,268
Она была простой женщиной.
356
00:25:41,706 --> 00:25:43,503
Она была переводчиком...
357
00:25:43,675 --> 00:25:46,610
на студии Тохо.
358
00:25:49,748 --> 00:25:51,739
Он влюбился...
359
00:25:51,917 --> 00:25:54,886
с первого взгляда.
360
00:25:57,923 --> 00:26:00,756
Когда он станет режиссером...
361
00:26:00,926 --> 00:26:03,895
он должен на ней жениться.
362
00:26:05,597 --> 00:26:08,430
Она выбрала для него...
363
00:26:08,600 --> 00:26:11,433
сюжет.
364
00:26:11,603 --> 00:26:14,436
Роман Яэко Ногами.
365
00:26:14,606 --> 00:26:17,336
"Матико"
366
00:26:17,509 --> 00:26:20,342
"Правда, интересно?"

MediaInfo

General
Complete name : C:\Torrents\[ASIA]\The.Kon.Ichikawa.Story\The.Kon.Ichikawa.Story.2006.avi
Format : AVI
Format/Info : Audio Video Interleave
File size : 702 MiB
Duration : 1h 22mn
Overall bit rate : 1 188 Kbps
Writing application : VirtualDubMod 1.5.10.2 (build 2540/release)
Writing library : VirtualDubMod build 2540/release
Video
ID : 0
Format : MPEG-4 Visual
Format profile : Advanced Simple@L5
Format settings, BVOP : 1
Format settings, QPel : No
Format settings, GMC : No warppoints
Format settings, Matrix : Default (MPEG)
Muxing mode : Packed bitstream
Codec ID : XVID
Codec ID/Hint : XviD
Duration : 1h 22mn
Bit rate : 733 Kbps
Width : 704 pixels
Height : 400 pixels
Display aspect ratio : 16:9
Frame rate : 23.976 fps
Color space : YUV
Chroma subsampling : 4:2:0
Bit depth : 8 bits
Scan type : Progressive
Compression mode : Lossy
Bits/(Pixel*Frame) : 0.109
Stream size : 433 MiB (62%)
Writing library : XviD 1.1.2 (UTC 2006-11-01)
Audio
ID : 1
Format : AC-3
Format/Info : Audio Coding 3
Mode extension : CM (complete main)
Codec ID : 2000
Duration : 1h 22mn
Bit rate mode : Constant
Bit rate : 448 Kbps
Channel(s) : 2 channels
Channel positions : Front: L R
Sampling rate : 48.0 KHz
Bit depth : 16 bits
Compression mode : Lossy
Stream size : 265 MiB (38%)
Alignment : Split accross interleaves
Interleave, duration : 83 ms (2.00 video frames)
Interleave, preload duration : 500 ms

Скриншот c названием фильма

Скриншоты

[teatrix.ru].t4478.torrent 
Торрент: Зарегистрирован [ 2015-10-08 00:27 ] · 17A7298B62A3D111D04D18A275D73E2467361613

Скачать .torrent

Скачать

14 KB

Статус: проверено
Скачан: 0 раз
Размер: 702 MB
terms.php



Быстрый ответ

Имя:

      
Для отправки сообщений необходимо включить JavaScript
Показать сообщения:    

Текущее время: 11-Дек 07:10

Часовой пояс: UTC + 3


Вы можете начинать темы
Вы можете отвечать на сообщения
Вы не можете редактировать свои сообщения
Вы не можете удалять свои сообщения
Вы не можете голосовать в опросах
Вы не можете прикреплять файлы к сообщениям
Вы можете скачивать файлы