Как на картинке: Искусство Дэвида Линча / Pretty As A Picture: The Art Of David Lynch (Toby Keeler / Тоби Килер) [1997, США, Документальный, биография, DVDRip] VO (eugene tongue)


Статистика раздачи [Обновить пиров]
Размер:  1.36 GB   |    Зарегистрирован:  1 год 1 месяц   |    Скачан:  0 раз

Полного источника не было: Никогда

 
   
 
 
 

[Цитировать]

Как на картинке: Искусство Дэвида Линча / Pretty As A Picture: The Art Of David Lynch
Страна: США
Жанр: Документальный, биография
Год выпуска: 1997
Продолжительность: 01:20:40
Перевод: Одноголосый закадровый eugene_tongue
Cубтитры: нет
Режиссер: Toby Keeler / Тоби Килер
В ролях: Дэвид Линч, Мэри Суини, Анжело Бадаламенти, Билл Пулман, Дин Стокуел, Роберт Лоджия и др.
Описание: Этот фильм - взгляд на творчески-разностороннюю личность художника и режиссера Дэвида Линча. Рассказ о нем ведут его друзья, коллеги и члены семьи, вспоминая его детство и подробности создания самых первых его работ. Сам Дэвид рассказывает о своих взглядах на искусство и окружающий мир. Фильм содержит большое количество интервью, воспоминаний и редких кадров со съемок различных проектов. Тем не менее повествование в основном построено вокруг процесса создания фильма "Шоссе вникуда".
Качество видео: DVDRip
Формат видео: AVI
Видео: Xvid, 640x464, 4:3 (NTSC), 29.970 fps, 2248 Kbps
Аудио: MP3, 48000 Hz, 160 Kbps, Joint-stereo
12.09.2013 Торрент перезалит
Убран interlace, обрезаны черные поля по сторонам, нет packed bitstream.

MediaInfo

General
Complete name :Pretty As A Picture - The Art Of David Lynch (RUS).avi
Format : AVI
Format/Info : Audio Video Interleave
File size : 1.36 GiB
Duration : 1h 20mn
Overall bit rate : 2 421 Kbps
Writing library : VirtualDub-MPEG2 build 24586/release
Video
ID : 0
Format : MPEG-4 Visual
Format profile : Advanced Simple@L5
Format settings, BVOP : Yes
Format settings, QPel : No
Format settings, GMC : No warppoints
Format settings, Matrix : Default (MPEG)
Codec ID : XVID
Codec ID/Hint : XviD
Duration : 1h 20mn
Bit rate : 2 249 Kbps
Width : 640 pixels
Height : 464 pixels
Display aspect ratio : 1.379
Frame rate : 29.970 fps
Color space : YUV
Chroma subsampling : 4:2:0
Bit depth : 8 bits
Scan type : Progressive
Compression mode : Lossy
Bits/(Pixel*Frame) : 0.253
Stream size : 1.27 GiB (93%)
Writing library : XviD 64
Audio
ID : 1
Format : MPEG Audio
Format version : Version 1
Format profile : Layer 3
Mode : Joint stereo
Codec ID : 55
Codec ID/Hint : MP3
Duration : 1h 20mn
Bit rate mode : Constant
Bit rate : 160 Kbps
Channel(s) : 2 channels
Sampling rate : 48.0 KHz
Compression mode : Lossy
Stream size : 92.3 MiB (7%)
Alignment : Split accross interleaves
Interleave, duration : 33 ms (1.00 video frame)
Interleave, preload duration : 500 ms

Скриншот c названием фильма

[teatrix.ru].t4482.torrent 
Торрент: Зарегистрирован [ 2015-10-08 00:27 ] · 87AFF5E3BE138107DDA87156B034FC6649D2E46E

Скачать .torrent

Скачать

14 KB

Статус: проверено
Скачан: 0 раз
Размер: 1.36 GB
terms.php



Быстрый ответ

Имя:

      
Для отправки сообщений необходимо включить JavaScript
Показать сообщения:    

Текущее время: 05-Дек 11:34

Часовой пояс: UTC + 3


Вы можете начинать темы
Вы можете отвечать на сообщения
Вы не можете редактировать свои сообщения
Вы не можете удалять свои сообщения
Вы не можете голосовать в опросах
Вы не можете прикреплять файлы к сообщениям
Вы можете скачивать файлы