Док / Dock / Сирены / Sirenes (Эмиль Дегелен / Emile Degelin) [1954, 1961, Бельгия, короткий метр, экспериментальный, документальный, DVDRip] original + sub


Статистика раздачи [Обновить пиров]
Размер:  267 MB   |    Зарегистрирован:  1 год 2 месяца   |    Скачан:  0 раз

Полного источника не было: Никогда

 
   
 
 
 

[Цитировать]

Док / Сирены / Dock / Sirenes
Док / Dock
Год выпуска: 1954
Страна: Бельгия
Жанр: короткий метр, документальный
Продолжительность: 00:11:29
Режиссер: Эмиль Дегелен / Emile Degelin
Оригинальная аудиодорожка: нидерландская
Перевод: субтитры
В ролях: не указано
Описание: Поэтический кинорассказ о том, как буксировали док красного цвета. Медленное движение, отражения в воде, песчаные дюны, модерновая музыка – и фильм становится элегией движения и цвета.
Качество: DVDRip
Формат: AVI
Видео кодек: XviD
Аудио кодек: AC3 Dolby Digital
Видео: XviD build 47 at 1765 kbps, 0.25 bit/pixel, 704x400 (1.76:1) at 25 fps
Аудио: AC3 Dolby Digital at 224 kbps, 2/0 (L,R) ch, 48 kHz

Отчет MediaInfo

Формат : AVI
Формат/Информация : Audio Video Interleave
Размер файла : 164 Мбайт
Продолжительность : 11 м.
Общий поток : 1999 Кбит/сек
Программа кодирования : VirtualDubMod 1.5.10.2 (build 2540/release)
Библиотека кодирования : VirtualDubMod build 2540/release
Видео
Идентификатор : 0
Формат : MPEG-4 Visual
Профиль формата : Advanced Simple@L5
Параметр BVOP формата : Нет
Параметр QPel формата : Нет
Параметр GMC формата : Без точки перехода
Параметр матрицы формата : Default (MPEG)
Идентификатор кодека : XVID
Идентификатор кодека/Подсказка : XviD
Продолжительность : 11 м.
Битрейт : 1765 Кбит/сек
Ширина : 704 пикс.
Высота : 400 пикс.
Соотношение сторон : 16:9
Частота кадров : 25,000 кадр/сек
Цветовое пространство : YUV
Подвыборка цветности : 4:2:0
Битовая глубина : 8 бит
Тип развёртки : Прогрессивная
Метод сжатия : С потерями
Бит/(Пиксели*Кадры) : 0.251
Размер потока : 145 Мбайт (88%)
Библиотека кодирования : XviD 1.2.0.dev47 (UTC 2006-11-01)
Аудио
Идентификатор : 1
Формат : AC-3
Формат/Информация : Audio Coding 3
Расширение режима : CM (complete main)
Идентификатор кодека : 2000
Продолжительность : 11 м.
Вид битрейта : Постоянный
Битрейт : 224 Кбит/сек
Канал(ы) : 2 канала(ов)
Расположение каналов : Front: L R
Частота : 48,0 КГц
Битовая глубина : 16 бит
Метод сжатия : С потерями
Размер потока : 18,4 Мбайт (11%)
Выравнивание : Разделение по промежуткам
Продолжительность промежутка : 40 мс. (1,00 видеокадр)
Время предзагрузки промежутка : 500 ms

Фрагмент субтитров

1
00:00:20,680 --> 00:00:27,160
ДОК
2
00:00:57,480 --> 00:01:00,836
В верфи на берегу Шельды
3
00:01:01,040 --> 00:01:05,352
был построен один из самых больших
плавучих доков в мире.
4
00:01:05,560 --> 00:01:07,516
Его должны были отбуксировать
в Швецию,
5
00:01:07,720 --> 00:01:11,838
где использовали бы
для постройки больших судов.
6
00:01:12,040 --> 00:01:18,388
Буксировка судна через пейзажи Шельды
началась на рассвете:
7
00:01:18,600 --> 00:01:22,991
весь день река отражала красный цвет,
8
00:01:23,200 --> 00:01:26,715
блуждающий по туманной отмели.
9
00:11:27,520 --> 00:11:29,765
Перевод - daft-digger

Скриншот c названием фильма

Скриншоты

Сирены / Sirenes
Страна: Бельгия
Жанр: короткий метр, экспериментальный
Год выпуска: 1961
Продолжительность: 00:07:04
Перевод: не требуется
Оригинальная аудиодорожка: музыка
Режиссер: Эмиль Дегелен / Emile Degelin
В ролях: не указано
Описание: Волны, моряки, рыба, сети и сирены – под электронную музыку Лучано Берио «Посвящение Джойсу».
Фильм выиграл «Серебряного медведя» на 11-м Берлинском международном кинофестивале.
Качество видео: DVDRip
Формат видео: AVI
Видео кодек: XviD
Аудио кодек: AC3 Dolby Digital
Видео: XviD build 47 at 1791 kbps, 0.33 bit/pixel, 544x400 (1.36:1) at 25 fps
Аудио: AC3 Dolby Digital at 224, 2/0 (L,R) ch, 48 kHz
Формат субтитров: softsub (SRT)

Отчет MediaInfo

Формат : AVI
Формат/Информация : Audio Video Interleave
Размер файла : 102 Мбайт
Продолжительность : 7 м. 4 с.
Общий поток : 2025 Кбит/сек
Программа кодирования : VirtualDubMod 1.5.10.2 (build 2540/release)
Библиотека кодирования : VirtualDubMod build 2540/release
Видео
Идентификатор : 0
Формат : MPEG-4 Visual
Профиль формата : Advanced Simple@L5
Параметр BVOP формата : Нет
Параметр QPel формата : Нет
Параметр GMC формата : Без точки перехода
Параметр матрицы формата : Default (MPEG)
Идентификатор кодека : XVID
Идентификатор кодека/Подсказка : XviD
Продолжительность : 7 м. 4 с.
Битрейт : 1791 Кбит/сек
Ширина : 544 пикс.
Высота : 400 пикс.
Соотношение сторон : 4:3
Частота кадров : 25,000 кадр/сек
Цветовое пространство : YUV
Подвыборка цветности : 4:2:0
Битовая глубина : 8 бит
Тип развёртки : Прогрессивная
Метод сжатия : С потерями
Бит/(Пиксели*Кадры) : 0.329
Размер потока : 90,7 Мбайт (88%)
Библиотека кодирования : XviD 1.2.0.dev47 (UTC 2006-11-01)
Аудио
Идентификатор : 1
Формат : AC-3
Формат/Информация : Audio Coding 3
Расширение режима : CM (complete main)
Идентификатор кодека : 2000
Продолжительность : 7 м. 4 с.
Вид битрейта : Постоянный
Битрейт : 224 Кбит/сек
Канал(ы) : 2 канала(ов)
Расположение каналов : Front: L R
Частота : 48,0 КГц
Битовая глубина : 16 бит
Метод сжатия : С потерями
Размер потока : 11,3 Мбайт (11%)
Выравнивание : Разделение по промежуткам
Продолжительность промежутка : 40 мс. (1,00 видеокадр)
Время предзагрузки промежутка : 500 ms

Скриншот c названием фильма

Скриншоты

Дополнительная информация
Перевод – daft-digger, подготовка субтитров – alex-kin.
Файлы взят с Карагарги – благодарим Weimar.
[teatrix.ru].t4485.torrent 
Торрент: Зарегистрирован [ 2015-10-08 00:27 ] · E0A6436F5FFB7F0E3B51E2408DC0E0FDB8B0B791

Скачать .torrent

Скачать

11 KB

Статус: проверено
Скачан: 0 раз
Размер: 267 MB
terms.php



Быстрый ответ

Имя:

      
Для отправки сообщений необходимо включить JavaScript
Показать сообщения:    

Текущее время: 10-Дек 13:45

Часовой пояс: UTC + 3


Вы можете начинать темы
Вы можете отвечать на сообщения
Вы не можете редактировать свои сообщения
Вы не можете удалять свои сообщения
Вы не можете голосовать в опросах
Вы не можете прикреплять файлы к сообщениям
Вы можете скачивать файлы