Беспечный ездок и бешеный бык, или Как поколение секса, наркотиков и рок-н-ролла спасло Голливуд / Easy Riders, Raging Bulls: How the Sex, Drugs and Rock «N» Roll Generation Saved Hollywood (Кеннет Баузер / Kenneth Bowser) [2003, DVDRip-AVC] [Диск 1]


Статистика раздачи [Обновить пиров]
Размер:  1.44 GB   |    Зарегистрирован:  1 год 2 месяца   |    Скачан:  0 раз

Полного источника не было: Никогда

 
   
 
 
 

[Цитировать]

Беспечный ездок и бешеный бык, или Как поколение секса, наркотиков и рок-н-ролла спасло Голливуд / Easy Riders, Raging Bulls: How the Sex, Drugs and Rock «N» Roll Generation Saved Hollywood / Диск №1
Страна: Канада, Великобритания
Жанр: Документальный
Год выпуска: 2003
Продолжительность: 1:58:09
Перевод: Профессиональный (двухголосый закадровый)
Cубтитры: нет
Оригинальная аудиодорожка: английский
Режиссер: Кеннет Баузер / Kenneth Bowser
В ролях: Мартин Скорсезе, Деннис Хоппер, Питер Богданович, Сэм Пекинпа, Уоррен Битти, Роберт Олтмен, Артур Пенн, Джек Николсон, Френсис Форд Коппола, Стивен Спилберг
Описание: В 1969 году малобюджетный байкерский фильм "Беспечный ездок" потряс Голливуд невероятным прокатным успехом и возвестил о начале новой эры. Это было время, когда молодые и талантливые режиссеры Скорсезе, Коппола и Спилберг вместе с новым поколением актеров, среди которых Де Ниро, Пачино и Николсон, стали влиятельными фигурами в кинематографе и создали современную киноклассику. Основанный на интервью самих режиссеров, продюсеров, звездных актеров, их агентов, сценаристов, руководителей студий, жен и экс-жен, этот фильм - исчерпывающий и откровенный рассказ о последнем "золотом веке" Голливуда.
Доп. информация: Рип делался с этой раздачи http://teatrix.ru/viewtopic.php?t=10567
Качество видео: DVDRip-AVC
Формат видео: MKV
Видео: x264, 704x384 (1.85:1), 23.976 fps, ~1356 Kbps
Аудио: AC3, 48.0 KHz, 192 kbps, 2.0 (L/R) ch, Russian
Аудио 2: AC3, 48.0 KHz, 192 kbps, 2.0 (L/R) ch, English

MediaInfo

General
Unique ID : 191625256351277958818987035469111005116 (0x9029AE9304010F15AE7F2746DA5A8FBC)
Complete name : F:\Movies\Easy Riders, Raging Bulls\disk1\Easy Riders, Raging Bulls (2003, disk1)[DVDRip-AVC][rus+eng].mkv
Format : Matroska
Format version : Version 4 / Version 2
File size : 1.44 GiB
Duration : 1h 58mn
Overall bit rate : 1 741 Kbps
Encoded date : UTC 2013-09-02 04:47:32
Writing application : mkvmerge v6.2.0 ('Promised Land') built on Apr 28 2013 12:22:01
Writing library : libebml v1.3.0 + libmatroska v1.4.0
Video
ID : 1
Format : AVC
Format/Info : Advanced Video Codec
Format profile : High@L3.1
Format settings, CABAC : Yes
Format settings, ReFrames : 14 frames
Codec ID : V_MPEG4/ISO/AVC
Duration : 1h 58mn
Bit rate : 1 356 Kbps
Width : 704 pixels
Height : 384 pixels
Display aspect ratio : 1.85:1
Frame rate mode : Constant
Frame rate : 23.976 fps
Color space : YUV
Chroma subsampling : 4:2:0
Bit depth : 8 bits
Scan type : Progressive
Bits/(Pixel*Frame) : 0.209
Stream size : 1.09 GiB (76%)
Writing library : x264 core 133 r2334 a3ac64b
Encoding settings : cabac=1 / ref=14 / deblock=1:-1:-1 / analyse=0x3:0x133 / me=umh / subme=10 / psy=1 / psy_rd=1.00:0.15 / mixed_ref=1 / me_range=24 / chroma_me=1 / trellis=2 / 8x8dct=1 / cqm=0 / deadzone=21,11 / fast_pskip=1 / chroma_qp_offset=-3 / threads=3 / lookahead_threads=1 / sliced_threads=0 / nr=0 / decimate=1 / interlaced=0 / bluray_compat=0 / constrained_intra=0 / bframes=15 / b_pyramid=2 / b_adapt=2 / b_bias=0 / direct=3 / weightb=1 / open_gop=0 / weightp=2 / keyint=240 / keyint_min=23 / scenecut=35 / intra_refresh=0 / rc_lookahead=60 / rc=2pass / mbtree=1 / bitrate=1356 / ratetol=1.0 / qcomp=0.60 / qpmin=0 / qpmax=69 / qpstep=4 / cplxblur=20.0 / qblur=0.5 / ip_ratio=1.40 / aq=1:1.00
Default : Yes
Forced : No
Audio #1
ID : 2
Format : AC-3
Format/Info : Audio Coding 3
Mode extension : CM (complete main)
Format settings, Endianness : Big
Codec ID : A_AC3
Duration : 1h 58mn
Bit rate mode : Constant
Bit rate : 192 Kbps
Channel count : 2 channels
Channel positions : Front: L R
Sampling rate : 48.0 KHz
Bit depth : 16 bits
Compression mode : Lossy
Stream size : 162 MiB (11%)
Language : Russian
Default : Yes
Forced : No
Audio #2
ID : 3
Format : AC-3
Format/Info : Audio Coding 3
Mode extension : CM (complete main)
Format settings, Endianness : Big
Codec ID : A_AC3
Duration : 1h 58mn
Bit rate mode : Constant
Bit rate : 192 Kbps
Channel count : 2 channels
Channel positions : Front: L R
Sampling rate : 48.0 KHz
Bit depth : 16 bits
Compression mode : Lossy
Stream size : 162 MiB (11%)
Language : English
Default : No
Forced : No
Menu
00:00:00.000 : :OPENING
00:01:36.200 : :BEFORE THE REVOLUTION
00:10:11.200 : :KINGS OF THE B's
00:14:29.168 : :STORMING THE GATES
00:24:57.635 : :FREEDOM MAN, THAT's WHAT IT's ALL ABOUT
00:38:22.635 : :THE MAN WHO WOULD BE KING
00:51:15.635 : :EASY RIDER TAKES A SPILL
01:06:33.504 : :THE NEXT WAVE
01:16:10.971 : :THE LUNATICS TAKE OVER THE ASYLUM
01:27:53.971 : :THE REVENGE OF THE NERDS
01:54:10.939 : :EPILOGUE
01:56:00.873 : :END CREDITS

Скриншот c названием фильма

Скриншоты

UPD 02.09.13: Исправлен рассинхрон звука.
[teatrix.ru].t4490.torrent 
Торрент: Зарегистрирован [ 2015-10-08 00:27 ] · 203D11ABA95AB23FF6F7E52C062A6F66A457DD29

Скачать .torrent

Скачать

15 KB

Статус: проверено
Скачан: 0 раз
Размер: 1.44 GB
terms.php



Быстрый ответ

Имя:

      
Для отправки сообщений необходимо включить JavaScript
Показать сообщения:    

Текущее время: 08-Дек 19:06

Часовой пояс: UTC + 3


Вы можете начинать темы
Вы можете отвечать на сообщения
Вы не можете редактировать свои сообщения
Вы не можете удалять свои сообщения
Вы не можете голосовать в опросах
Вы не можете прикреплять файлы к сообщениям
Вы можете скачивать файлы