Да здравствуют антиподы! / Vivan las Antipodas! (Виктор Косаковский) [2011, Документальный, DVDRip]


Статистика раздачи [Обновить пиров]
Размер:  1.46 GB   |    Зарегистрирован:  1 год 2 месяца   |    Скачан:  0 раз

Полного источника не было: Никогда

 
   
 
 
 

[Цитировать]

Да здравствуют антиподы! / Vivan las Antipodas!
Год выпуска: 2011
Страна: Германия, Аргентина, Нидерланды, Чили
Жанр: Документальный
Продолжительность: 01:48:32
Перевод: не требуется
Русские субтитры: нет-Режиссер: Виктор Косаковский-Описание: Эпический визуальный калейдоскоп. Один из старейших вопросов человечества: что происходит на другой стороне Земли? Есть ли параллели и связи между нами и нашими антиподами? И что будет, если взгляд антиподов на наш мир перевернуть с ног на голову? Всемирно известный документалист Виктор Косаковский посещает несколько мест, которые находятся на глобусе в точности одно против другого. Используя эффектные монтажные стыки, режиссер создает настоящую поэму о мультиполярном мире. История развивается в четырех парных географических позициях: Аргентина-Китай, Чили-Россия, Гавайи-Ботсвана, Новая Зеландия-Испания. Все эти места каким-то мистическим образом соединены друг с другом... Фильм В. Косаковского - не просто событийный документальный фильм, привлекший к себе внимание многих кинофестивалей, это, безусловно, эпическая визуальная симфония, киномедитация, зачаровывающий калейдоскоп лучших мест планеты!-Доп. информация: Официальный сайт

семпл-качество: DVDRip
формат: AVI
Видео: XviD, 1615kbps 720x400 (16:9), 23.976 fps
Аудио: Dolby AC3, 6 ch, 48.0 KHz, 448 Kbps

MediaInfo

Общее
Полное имя : E:\Antipodas_T01.avi
Формат : AVI
Формат/Информация : Audio Video Interleave
Размер файла : 1,46 Гбайт
Продолжительность : 1 ч. 43 м.
Общий поток : 2008 Кбит/сек
Программа кодирования : VirtualDubMod 1.5.10.2 (build 2540/release)
Библиотека кодирования : VirtualDubMod build 2540/release
Видео
Идентификатор : 0
Формат : MPEG-4 Visual
Профиль формата : Advanced Simple@L5
Параметр BVOP формата : 1
Параметр QPel формата : Нет
Параметр GMC формата : Без точки перехода
Параметр матрицы формата : Default (MPEG)
Идентификатор кодека : XVID
Идентификатор кодека/Подсказка : XviD
Продолжительность : 1 ч. 43 м.
Битрейт : 1615 Кбит/сек
Ширина : 720 пикселей
Высота : 400 пикселей
Соотношение сторон : 16:9
Частота кадров : 23,976 кадра/сек
Цветовое пространство : YUV
Субдискретизация насыщенности : 4:2:0
Битовая глубина : 8 бит
Тип развёртки : Прогрессивная
Метод сжатия : С потерями
Бит/(Пиксели*Кадры) : 0.234
Размер потока : 1,17 Гбайт (80%)
Библиотека кодирования : XviD 1.2.1 (UTC 2008-12-04)
Аудио
Идентификатор : 1
Формат : AC-3
Формат/Информация : Audio Coding 3
Расширение режима : CM (complete main)
Параметр Endianness формата : Big
Идентификатор кодека : 2000
Продолжительность : 1 ч. 43 м.
Вид битрейта : Постоянный
Битрейт : 384 Кбит/сек
Каналы : 6 каналов
Расположение каналов : Front: L C R, Side: L R, LFE
Частота : 48,0 КГц
Битовая глубина : 16 бит
Метод сжатия : С потерями
Размер потока : 285 Мбайт (19%)
Выравнивание : Разделение по промежуткам
Продолжительность промежутка : 42 мс. (1,00 видеокадр)
Время предзагрузки промежутка : 500 мс.

Скриншоты

[teatrix.ru].t4493.torrent 
Торрент: Зарегистрирован [ 2015-10-08 00:27 ] · CF3F7B6D7FA102DD006174A8B74A99C78B551A27

Скачать .torrent

Скачать

15 KB

Статус: проверено
Скачан: 0 раз
Размер: 1.46 GB
terms.php



Быстрый ответ

Имя:

      
Для отправки сообщений необходимо включить JavaScript
Показать сообщения:    

Текущее время: 09-Дек 10:49

Часовой пояс: UTC + 3


Вы можете начинать темы
Вы можете отвечать на сообщения
Вы не можете редактировать свои сообщения
Вы не можете удалять свои сообщения
Вы не можете голосовать в опросах
Вы не можете прикреплять файлы к сообщениям
Вы можете скачивать файлы