Музыка нас мало тревожит / We Don\'t Care About Music Anyway (Седрик Дюпи / Cedric Dupire, Гаспар Кунц / Gaspard Kuentz) [2009, Франция, документальный, DVDRip] Sub Rus [Syn.Optik] + original


Статистика раздачи [Обновить пиров]
Размер:  897 MB   |    Зарегистрирован:  1 год 3 месяца   |    Скачан:  0 раз

Полного источника не было: Никогда

 
   
 
 
 

[Цитировать]

Музыка нас мало тревожит / We Don't Care About Music Anyway Страна: Франция
Жанр: документальный
Год выпуска: 2009
Продолжительность: 01:25:45
Перевод: Субтитры ([Syn.Optik])
Cубтитры: русские (.srt)
Оригинальная аудиодорожка: японский
Режиссеры: Седрик Дюпи / Cedric Dupire, Гаспар Кунц / Gaspard Kuentz
В ролях: Ёсихидэ Отомо, Хиромичи Сакамото, Томоко Симазаки, Кен Такехиса, Фуюки Ямакава
Описание: Музыканты, прежде всего, отражают окружающую действительность. А поскольку Токио представляет собой одно массивное нагромождение небоскрёбов, линий и станций метро, экранов телевизоров и пробок на дорогах, то и японские нойзеры будут выдавать свои творения в явственно документальном облике. Мы видим железнодорожные пути, магазины электроники, мусоровозы, строительные краны и телеэкраны на площади Хатико - холодные и очень футуристические пейзажи; слышим гитары, пропущенные по каналам обратной связи, кричащий вокал, дребезжание виолончели, контактные микрофоны, усиливающие микрозвуки - всё это и пугает, и завораживает одновременно.
Шестёрка музыкантов, выступающая на свалках, пляжах, в туннелях и складах - периодически собирается за круглым столом, увлечённая философскими размышлениями на тему природы звука, политической и экзистенциальной подоплёки современности, упадка самобытной японской культуры и прочее.
"Музыка нас мало тревожит" - это фильм об экстремальной шумовой сцене, с минимумом комментариев (не потерявших при этом весомости) и отрывками выступлений, которые обладают повышенной выразительностью и полностью пропитаны духом сочинительства. Справедливости ради, стоит отметить, что подобная направленность далеко не всем придётся по вкусу, однако те, кого "музыка мало тревожит" - с головой окунутся в звуковое психоделическое путешествие.-Релиз:

videodemons-Качество видео: DVDRip
Формат видео: AVI
Видео: 512x384, 25 fps, 1 071 Kbps
Аудио: 48 kHz, AC 3, 2 ch, 384 kbps

Фрагмент субтитров

1
00:01:10,648 --> 00:01:13,708
МУЗЫКА НАС МАЛО ТРЕВОЖИТ
2
00:02:42,657 --> 00:02:48,647
ТОКИО
20?? год.
3
00:10:16,675 --> 00:10:18,675
Взаимопонимание достигается
4
00:10:19,815 --> 00:10:24,685
на социальном уровне.
5
00:10:26,835 --> 00:10:29,846
Особенно здесь,
6
00:10:29,866 --> 00:10:31,706
в Японии.
7
00:10:34,586 --> 00:10:36,656
Это трудно объяснить.
8
00:10:36,676 --> 00:10:41,676
Наши действия продиктованы
лицемерной установкой,
9
00:10:42,776 --> 00:10:47,596
которая подавляет волю к переменам.
10
00:10:47,806 --> 00:10:49,777
Как я могу судить,
11
00:10:50,717 --> 00:10:55,777
такая ситуация сильно дезориентирует,
12
00:10:55,797 --> 00:10:57,847
и я убеждён, что
13
00:10:57,867 --> 00:11:03,597
существует множество альтернатив
и более привлекательных возможностей.
14
00:11:04,607 --> 00:11:09,877
Я думаю, моя цель - отыскать их.
15
00:11:10,597 --> 00:11:11,878
Возможно, это звучит очень абстрактно.
16
00:11:12,598 --> 00:11:14,618
Ямакава, нет, конечно.
17
00:11:14,638 --> 00:11:18,688
Теперь понятно почему у тебя
такие длинные волосы.
18
00:11:20,828 --> 00:11:25,798
Это правда, что у японцев
обеднённое представление о счастье.
19
00:11:26,708 --> 00:11:27,758
В яблочко!
20
00:11:27,778 --> 00:11:30,868
Счастье в коробке.
21
00:11:31,588 --> 00:11:34,619
Работай, отстраивай дом,
22
00:11:34,639 --> 00:11:37,719
иди в магазин за покупками.

MediaInfo

General
Complete name : C:\We Don't Care About Music Anyways (2009)\We Don't Care About Music Anyways (2009).avi
Format : AVI
Format/Info : Audio Video Interleave
File size : 897 MiB
Duration : 1h 25mn
Overall bit rate : 1 462 Kbps
Writing application : VirtualDubMod 1.5.4.1 (build 2178/release)
Writing library : VirtualDubMod build 2178/release
Video
ID : 0
Format : MPEG-4 Visual
Format settings, BVOP : 1
Format settings, QPel : No
Format settings, GMC : No warppoints
Format settings, Matrix : Default (H.263)
Muxing mode : Packed bitstream
Codec ID : DX50
Codec ID/Hint : DivX 5
Duration : 1h 25mn
Bit rate : 1 071 Kbps
Width : 512 pixels
Height : 384 pixels
Display aspect ratio : 4:3
Frame rate : 25.000 fps
Color space : YUV
Chroma subsampling : 4:2:0
Bit depth : 8 bits
Scan type : Progressive
Compression mode : Lossy
Bits/(Pixel*Frame) : 0.218
Stream size : 657 MiB (73%)
Writing library : DivX 6.8.5 (UTC 2009-08-20)
Audio
ID : 1
Format : AC-3
Format/Info : Audio Coding 3
Mode extension : CM (complete main)
Codec ID : 2000
Duration : 1h 25mn
Bit rate mode : Constant
Bit rate : 384 Kbps
Channel(s) : 2 channels
Channel positions : Front: L R
Sampling rate : 48.0 KHz
Bit depth : 16 bits
Compression mode : Lossy
Stream size : 236 MiB (26%)
Alignment : Split accross interleaves
Interleave, duration : 96 ms (2.40 video frames)
Interleave, preload duration : 96 ms

Скриншоты

[teatrix.ru].t4495.torrent 
Торрент: Зарегистрирован [ 2015-10-08 00:27 ] · 74D2435B12D3D20A7072D9F82B1965235266B3ED

Скачать .torrent

Скачать

18 KB

Статус: проверено
Скачан: 0 раз
Размер: 897 MB
terms.php



Быстрый ответ

Имя:

      
Для отправки сообщений необходимо включить JavaScript
Показать сообщения:    

Текущее время: 24-Янв 12:14

Часовой пояс: UTC + 3


Вы можете начинать темы
Вы можете отвечать на сообщения
Вы не можете редактировать свои сообщения
Вы не можете удалять свои сообщения
Вы не можете голосовать в опросах
Вы не можете прикреплять файлы к сообщениям
Вы можете скачивать файлы