Мерцание / Flicker (Ник Шиэн / Nik Sheehan) [2008, Канада, документальный, DVDRip] Sub Rus (Severnyj) + original


Статистика раздачи [Обновить пиров]
Размер:  691 MB   |    Зарегистрирован:  1 год 2 месяца   |    Скачан:  2 раза
Сидов:  1  [  0 KB/s  ]   Подробная статистика пиров
 
   
 
 
 

[Цитировать]

Мерцание / Flicker Страна: Канада
Жанр: документальный
Год выпуска: 2008
Продолжительность: 01:12:04
Перевод: Субтитры (Severnyj)
Cубтитры: русские (.srt)
Оригинальная аудиодорожка: английский/французский
Режиссер: Ник Шиэн / Nik Sheehan
В ролях: Брайон Гайсин, Уильям Берроуз, Игги Поп, Кеннет Энгер, Psychic TV, The Stooges и другие
Описание: Документальный фильм о машине сновидений Брайона Гайсина.-За появление релиза выражается благодарность пользователям: Voqkrre, AlexNever, PanSabotage, Synoptik-Релиз:

videodemons-Качество видео: DVDRip
Формат видео: AVI
Видео: 720x400, 29.97 fps, 1 194 Kbps
Аудио: 48 kHz, MPEG Layer 3, 2 ch, 132 kbps

Фрагмент субтитров

1
00:00:09,731 --> 00:00:20,569
"Мы должны штурмовать цитадели
просвещения, все средства под рукой."
- Уильям Берроуз, из письма Брайону Гайсину.
2
00:00:24,004 --> 00:00:26,004
Его зовут Брайон Гайсин.
3
00:00:31,133 --> 00:00:34,709
Он родился в Англии, в 1916 году,
мать была канадкой, а отец -
4
00:00:34,710 --> 00:00:38,852
британцем, погибшим в окопах во Франции,
когда Брайон был ещё младенцем.
5
00:00:38,978 --> 00:00:41,095
Он вырос в Эдмонтоне, столице канадской
провинции Альберта,
6
00:00:41,143 --> 00:00:44,400
а потом вернулся в Англию, чтобы поступить
в католическую школу для мальчиков.
7
00:00:44,494 --> 00:00:47,837
Он так и не смог определиться, какой
был национальности. Иногда он был...
8
00:00:47,838 --> 00:00:51,133
...швейцарцем, иногда британцем,
американцем, французом или марроканцем.
9
00:00:51,893 --> 00:00:55,792
Он злился, если кто-нибудь называл
его канадцем, но изучал японскую каллиграфию,
10
00:00:55,947 --> 00:00:58,122
которая была так важна для его
искусства, во время обучения...
11
00:00:58,123 --> 00:01:00,007
...шпионажу в канадской армии
во Вторую мировую войну.
12
00:01:02,037 --> 00:01:06,031
Он встретил человека по имени
Уильям С. Берроуз в Танжере в 1954.

MediaInfo

General
Complete name : C:\Flicker_2008\Flicker.avi
Format : AVI
Format/Info : Audio Video Interleave
File size : 690 MiB
Duration : 1h 12mn
Overall bit rate : 1 340 Kbps
Writing application : ogmrip-0.13.6
Video
ID : 0
Format : MPEG-4 Visual
Format profile : Advanced Simple@L5
Format settings, BVOP : 2
Format settings, QPel : No
Format settings, GMC : No warppoints
Format settings, Matrix : Default (H.263)
Codec ID : XVID
Codec ID/Hint : XviD
Duration : 1h 12mn
Bit rate : 1 194 Kbps
Width : 720 pixels
Height : 400 pixels
Display aspect ratio : 16:9
Frame rate : 29.970 fps
Color space : YUV
Chroma subsampling : 4:2:0
Bit depth : 8 bits
Scan type : Progressive
Compression mode : Lossy
Bits/(Pixel*Frame) : 0.138
Stream size : 615 MiB (89%)
Writing library : XviD 64
Audio
ID : 1
Format : MPEG Audio
Format version : Version 1
Format profile : Layer 3
Mode : Joint stereo
Mode extension : MS Stereo
Codec ID : 55
Codec ID/Hint : MP3
Duration : 1h 12mn
Bit rate mode : Variable
Bit rate : 132 Kbps
Minimum bit rate : 32.0 Kbps
Channel(s) : 2 channels
Sampling rate : 48.0 KHz
Compression mode : Lossy
Stream size : 67.9 MiB (10%)
Alignment : Aligned on interleaves
Interleave, duration : 24 ms (0.72 video frame)
Writing library : LAME3.99r
Encoding settings : -m j -V 4 -q 0 -lowpass 17.5 --vbr-new -b 32

Скриншоты

[teatrix.ru].t4496.torrent 
Торрент: Зарегистрирован [ 2015-10-08 00:27 ] · DE0A65A7D4F7CF0B380771EE622594A1D68E9582

Скачать .torrent

Скачать

14 KB

Статус: проверено
Скачан: 2 раз
Размер: 691 MB
terms.php



Быстрый ответ

Имя:

      
Для отправки сообщений необходимо включить JavaScript
Показать сообщения:    

Текущее время: 10-Дек 19:38

Часовой пояс: UTC + 3


Вы можете начинать темы
Вы можете отвечать на сообщения
Вы не можете редактировать свои сообщения
Вы не можете удалять свои сообщения
Вы не можете голосовать в опросах
Вы не можете прикреплять файлы к сообщениям
Вы можете скачивать файлы