Поезд мчится вперед / Поезд победы / Le train en marche / The Train Rolls On (Крис Маркер / Chris Marker) [1973, Франция, документальный, короткометражный, VHSRip] + Sub Rus + Original Eng


Статистика раздачи [Обновить пиров]
Размер:  291 MB   |    Зарегистрирован:  1 год 1 месяц   |    Скачан:  0 раз

Полного источника не было: Никогда

 
   
 
 
 

[Цитировать]

Поезд мчится вперед / Поезд победы / Le train en marche / The Train Rolls On
Страна: Франция
Жанр: документальный, короткометражный
Год выпуска: 1973
Продолжительность: 00:32:49
Перевод: Субтитры
Cубтитры: русские
Оригинальная аудиодорожка: английский
Режиссер: Крис Маркер / Chris Marker
В ролях: Александр Медведкин/Aleksandr Medvedkin, Франсуа Перье/François Périer
Описание: Короткий фильм-размышление об эпохе кинопоезда, когда группа кинематографистов-энтузиастов во главе с Александром Медведкиным путешествовала на поезде-киностудии по Советскому Союзу, снимая и показывая народу его жизнь, работу и насущные проблемы. Кинематографисты снимали как положительный, так и отрицательный опыт, вдохновляя народ работать как можно лучше и провоцируя изменения в обществе. После демонстрации своих фильмов, команда устраивала обсуждение с советом рабочих, на котором все вместе решали, как справиться с затронутыми проблемами и изменить ситуацию к лучшему.
Историю кинопоезда рассказывает сам Александр Медведкин, прогуливающийся среди поездов по французскому вокзалу.
Доп. информация: Перевод – Abris, подготовка субтитров – alex-kin.
Файл взят с Карагарги, за что благодарим dazzleme.
Памяти Криса Маркера,
29 июля 1921 г. – 29 июля 2012 г.

Сэмпл: http://multi-up.com/888963
Качество видео: VHSRip
Формат видео: AVI
Видео: XviD build 24 at 974 kbps, 0.14 bit/pixel, 608x480 (1.27:1) at 23.976 fps
Аудио: AC3 Dolby Digital at 256 kbps, 2/0 (L,R) ch, 48 kHz
Формат субтитров: softsub (SRT)

Фрагмент субтитров

134
00:15:42,026 --> 00:15:44,991
Для 33-его романтика
просто не было места.
135
00:15:45,496 --> 00:15:48,411
Не забывайте, что нам приходилось
все делать самим:
136
00:15:48,708 --> 00:15:52,793
мыть вагоны, подавать воду,
обрабатывать пленку, доставать еду,
137
00:15:53,371 --> 00:16:00,000
издавать свою газету и делать
все необходимое для жилья и работы.
138
00:16:00,419 --> 00:16:05,829
Мы все перепробовали
самые неожиданные профессии.
139
00:16:14,684 --> 00:16:18,794
Когда поезд был готов,
мы выехали на Украину.
140
00:16:22,858 --> 00:16:26,008
Я очень люблю этот рейс.
141
00:16:29,991 --> 00:16:32,126
Тогда там шла уборка урожая.
142
00:16:35,037 --> 00:16:37,767
Это были тяжелые времена.
143
00:16:38,082 --> 00:16:44,202
Крестьяне только переходили
на коллективное хозяйство, колхозы.
144
00:16:51,304 --> 00:16:54,009
Колхозы были молоды,
145
00:16:54,223 --> 00:16:57,498
крестьяне еще не привыкли
к коллективной собственности,
146
00:16:58,519 --> 00:17:01,819
поэтому неудивительно,
что многие отставали и работали плохо,
147
00:17:02,273 --> 00:17:06,008
и урожай у них не всегда
собирался полностью.
148
00:17:10,323 --> 00:17:13,973
Мы снимали самые лучшие,
самые интересные хозяйства,
149
00:17:14,511 --> 00:17:17,646
которые могли послужить
примером остальным.
150
00:17:25,213 --> 00:17:27,663
Мы показывали такие фильмы
в отстающих колхозах,
151
00:17:28,007 --> 00:17:31,057
где люди все еще не начали
трудиться как следует.
152
00:17:31,335 --> 00:17:33,760
Их мы тоже снимали,
чтобы запечатлеть их ошибки.
153
00:17:34,143 --> 00:17:37,558
Мы сопоставляли на экране
и хороший опыт, и плохой.
154
00:17:44,760 --> 00:17:47,105
И после фильма мы
обращались к людям:

MediaInfo

Формат : AVI
Формат/Информация : Audio Video Interleave
Размер файла : 291 Мбайт
Продолжительность : 32 м.
Общий поток : 1240 Кбит/сек
Программа кодирования : Nandub v1.0rc2
Библиотека кодирования : Nandub build 1852/release
Видео
Идентификатор : 0
Формат : MPEG-4 Visual
Профиль формата : Advanced Simple@L5
Параметр BVOP формата : 2
Параметр QPel формата : Нет
Параметр GMC формата : Без точки перехода
Параметр матрицы формата : Default (MPEG)
Идентификатор кодека : XVID
Идентификатор кодека/Подсказка : XviD
Продолжительность : 32 м.
Битрейт : 975 Кбит/сек
Ширина : 608 пикс.
Высота : 480 пикс.
Соотношение сторон : 5:4
Частота кадров : 23,976 кадр/сек
Цветовое пространство : YUV
Подвыборка цветности : 4:2:0
Битовая глубина : 8 бит
Тип развёртки : Прогрессивная
Метод сжатия : С потерями
Бит/(Пиксели*Кадры) : 0.139
Размер потока : 229 Мбайт (79%)
Библиотека кодирования : XviD 1.0.0 Beta2.5 (UTC 2003-12-18)
Аудио
Идентификатор : 1
Формат : AC-3
Формат/Информация : Audio Coding 3
Расширение режима : CM (complete main)
Идентификатор кодека : 2000
Продолжительность : 32 м.
Вид битрейта : Постоянный
Битрейт : 256 Кбит/сек
Канал(ы) : 2 канала(ов)
Расположение каналов : Front: L R
Частота : 48,0 КГц
Битовая глубина : 16 бит
Метод сжатия : С потерями
Задержка видео : 19 мс.
Размер потока : 60,1 Мбайт (21%)
Выравнивание : Разделение по промежуткам
Продолжительность промежутка : 42 мс. (1,00 видеокадр)
Время предзагрузки промежутка : 500 ms

Скриншот c названием фильма

Скриншоты

[teatrix.ru].t4498.torrent 
Торрент: Зарегистрирован [ 2015-10-08 00:27 ] · 90228DA937476284E3CE6354E0EB2708A1A214E3

Скачать .torrent

Скачать

12 KB

Статус: проверено
Скачан: 0 раз
Размер: 291 MB
terms.php



Быстрый ответ

Имя:

      
Для отправки сообщений необходимо включить JavaScript
Показать сообщения:    

Текущее время: 07-Дек 21:17

Часовой пояс: UTC + 3


Вы можете начинать темы
Вы можете отвечать на сообщения
Вы не можете редактировать свои сообщения
Вы не можете удалять свои сообщения
Вы не можете голосовать в опросах
Вы не можете прикреплять файлы к сообщениям
Вы можете скачивать файлы