Жизнь кинорежиссера: Кэндзи Мидзогути / Kenji Mizoguchi, the life of a film director / Aru eiga-kantoku no shogai (Канэто Синдо / Kaneto Shindo) [1975, Япония, документальный, DVDRip] Original Jap + Sub Rus, Eng


Статистика раздачи [Обновить пиров]
Размер:  1.47 GB   |    Зарегистрирован:  1 год 2 месяца   |    Скачан:  0 раз

Полного источника не было: Никогда

 
   
 
 
 

[Цитировать]

Жизнь кинорежиссера: Кэндзи Мидзогути / Kenji Mizoguchi, the life of a film director / Aru eiga-kantoku no shogai
Страна: Япония
Жанр: документальный
Год выпуска: 1975
Продолжительность: 02:29:54
Перевод: Субтитры русские - дед_сто_лет©
Cубтитры: русские, английские
Оригинальная аудиодорожка: японский
Режиссер: Канэто Синдо / Kaneto Shindo
В ролях: Кинуё ТАНАКА, Ёсиката Ёда, Масасигэ Нарусава, Кумэко Урабэ, Ёсикадзу Хаяси, Мацутаро Кавагути, Эйдзи Накано, Хисао Итоя, Тацуо Сакаи, Масару Аракава, Какуко Мори, Такако Ириэ, Масаити Нагата, Горо Контаибо, Сэйитиро Утикава, Гэнго Обора, Кёко Кагава, Митиё Когурэ, Исудзу Ямада, Сигэру Мики, Киёхико Усихара, Фумико Ямадзи, Хидэо Цумура, Матико Кё, Дайскэ Ито, Кадзуо Миягава, Кэнъити Окамото, Тадаото Кайносё, Тадзуко Саканэ, Нобуко Отова, Гандзиро Накамура, Эйтаро Синдо, Эдзиро Янаги, Эйтаро Одзава, Ясудзо Масумура, Аяко Вакао, Ёсиюки Такацу, Мотохиса Андо, Мацудзи Оно
Описание: Знаменитый режиссер Канэто Синдо исследует последовательно жизнь своего великого коллеги Кэндзи Мидзогути (1898 - 1956).
> > > > > > > > >
Качество видео: DVDRip
Формат видео: AVI
Видео: 720x544 (1.32:1), 23.976 fps, XviD build 50 ~1201 kbps avg, 0.13 bit/pixel
Аудио: 48 kHz, AC3 Dolby Digital, 1/0 (C) ch, ~192 kbps
Формат субтитров: softsub (SRT)
Доп. информация о субтитрах: дед_сто_лет

Пример субтитров

744
00:54:34,437 --> 00:54:38,430
и ожидал, что мы будем вкладывать
в работу не меньше его.
745
00:54:38,775 --> 00:54:44,042
Я старалась прийти утром
пораньше, чтобы быть первой...
746
00:54:44,247 --> 00:54:46,647
но он уже был там...
747
00:54:46,850 --> 00:54:51,651
и сидел один в темноте.
748
00:54:52,822 --> 00:54:56,485
ТОКИО, район ТОСИМА
749
00:54:56,693 --> 00:55:00,652
Он снял этот дом,
чтобы работать на Синко.
750
00:55:03,036 --> 00:55:05,333
АХ! РОДНЫЕ МЕСТА (1938)
751
00:55:05,602 --> 00:55:08,400
Там он снял "Ах! Родные места"
и "Песню на привале"
752
00:55:08,605 --> 00:55:11,335
Потом он стал работать на
студии Сётику в Симокамо.
753
00:55:12,509 --> 00:55:14,636
ПОВЕСТЬ О ПОЗДНЕЙ ХРИЗАНТЕМЕ (1939)
754
00:55:14,844 --> 00:55:18,940
В Сётику хотели, чтобы он
755
00:55:19,149 --> 00:55:24,519
снимал в главной роли
актера Кабуки Сётаро Ханаяги.
756
00:55:24,721 --> 00:55:29,283
Но тогда мужчины уже
не играли в фильмах женщин...
757
00:55:29,492 --> 00:55:33,622
и он снял "Позднюю хризантему".
758
00:55:33,863 --> 00:55:38,300
Действие фильма происходило в Кабуки.
759
00:55:38,702 --> 00:55:44,106
Я ничего не знал о Кабуки,
и мне это было довольно сложно.
760
00:55:45,241 --> 00:55:48,438
= Справа МИДЗОГУТИ в возрасте 41 год =
*
Они называли нас "группа поддержки"
761
00:55:49,546 --> 00:55:54,108
= МАСАРУ АРАКАВА - декоратор =
*
Мы изготавливали бамбуковые копья...
762
00:55:54,317 --> 00:55:56,945
различные палки и прочее.
763
00:55:57,153 --> 00:56:04,888
В Симокамо я уже работал со сложными
режиссерами, например с Кинтаро Иноуэ.
764
00:56:04,999 --> 00:56:08,255
Так что я знал, чего ожидать от него,
и мы были в хороших отношениях.
765
00:56:08,398 --> 00:56:10,457
К тому же фильм основывался на Кабуки...
766
00:56:10,667 --> 00:56:14,398
и мой отец работал в Кабуки,
так что я хорошо знал этот мир.
767
00:56:14,604 --> 00:56:16,902
Мы работали без проблем.
768
00:56:17,107 --> 00:56:19,268
Мне кажется, я нравился Мидзогути.
769
00:56:19,476 --> 00:56:22,138
Я узнал от него много
про декорации и реквизит.
770
00:56:22,345 --> 00:56:27,078
Сегодня его бы назвали перфекционистом.
771
00:56:27,283 --> 00:56:34,189
Но его отношение к реквизиту
было очень личным.
772
00:56:34,391 --> 00:56:38,760
Он держал в голове множество вещей,
которые он видел или слышал.
773
00:56:38,962 --> 00:56:43,399
При покупке старинных вещей
его часто обманывали...
774
00:56:43,600 --> 00:56:46,068
но со временем он стал
разбираться намного больше.
775
00:56:46,269 --> 00:56:49,067
ЁСИЮКИ ТАКАЦУ — президент
торговой компании Такацу.

MediaInfo

General
Complete name : C:\Torrents\[ASIA]\Kenji.Mizoguchi.The.Life.1975\Kenji_Mizoguchi.The_Life_of_a _Film_Director.avi
Format : AVI
Format/Info : Audio Video Interleave
File size : 1.47 GiB
Duration : 2h 29mn
Overall bit rate : 1 400 Kbps
Writing application : VirtualDubMod 1.5.4.1 (build 2178/release)
Writing library : VirtualDubMod build 2178/release
Video
ID : 0
Format : MPEG-4 Visual
Format profile : Advanced Simple@L5
Format settings, BVOP : 1
Format settings, QPel : No
Format settings, GMC : No warppoints
Format settings, Matrix : Custom
Codec ID : XVID
Codec ID/Hint : XviD
Duration : 2h 29mn
Bit rate : 1 201 Kbps
Width : 720 pixels
Height : 544 pixels
Display aspect ratio : 4:3
Frame rate : 23.976 fps
Color space : YUV
Chroma subsampling : 4:2:0
Bit depth : 8 bits
Scan type : Progressive
Compression mode : Lossy
Bits/(Pixel*Frame) : 0.128
Stream size : 1.26 GiB (86%)
Writing library : XviD 1.2.1 (UTC 2008-12-04)
Audio
ID : 1
Format : AC-3
Format/Info : Audio Coding 3
Mode extension : CM (complete main)
Codec ID : 2000
Duration : 2h 29mn
Bit rate mode : Constant
Bit rate : 192 Kbps
Channel(s) : 1 channel
Channel positions : Front: C
Sampling rate : 48.0 KHz
Bit depth : 16 bits
Compression mode : Lossy
Stream size : 206 MiB (14%)
Alignment : Split accross interleaves
Interleave, duration : 96 ms (2.30 video frames)
Interleave, preload duration : 96 ms
Language : Japanese

Скриншот c названием фильма

Скриншоты

[teatrix.ru].t4500.torrent 
Торрент: Зарегистрирован [ 2015-10-08 00:27 ] · 4D48086BE3CBF70E6EE4181969F0D511E20FDD6C

Скачать .torrent

Скачать

15 KB

Статус: проверено
Скачан: 0 раз
Размер: 1.47 GB
terms.php



Быстрый ответ

Имя:

      
Для отправки сообщений необходимо включить JavaScript
Показать сообщения:    

Текущее время: 10-Дек 19:40

Часовой пояс: UTC + 3


Вы можете начинать темы
Вы можете отвечать на сообщения
Вы не можете редактировать свои сообщения
Вы не можете удалять свои сообщения
Вы не можете голосовать в опросах
Вы не можете прикреплять файлы к сообщениям
Вы можете скачивать файлы