Остров на краю света / The Island at the End of the World / No pongso do tedted no mondo: Ang isla sa dulo ng mundo (Райа Мартин / Raya Martin) [2005, Филиппины, Документальный, DVDRip] + Sub Rus


Статистика раздачи [Обновить пиров]
Размер:  1.37 GB   |    Зарегистрирован:  1 год 2 месяца   |    Скачан:  0 раз

Полного источника не было: Никогда

 
   
 
 
 

[Цитировать]

Остров на краю света / The Island at the End of the World / Ang Isla Sa Dulo ng Mundo
Страна: Филиппины
Жанр: Документальный
Год выпуска: 2005
Продолжительность: 01:46:44
Перевод: Субтитры
Cубтитры: русские, английские (вшитые)
Оригинальная аудиодорожка: тагальский
Режиссер: Райа Мартин / Raya Martin
В ролях: Адвенкула Алькантара, Леон Алькантара, Мария Алькантара, Висенте Кано, Бен Кастилло, Тио Газа, Николастика Гонсалес, Виоли Гонсалес
Описание: Студент манильской киношколы Рая Мартин отправляется на остров Итбаят в самой северной и изолированной филиппинской провинции Батанес. Острова Батанеса открываются для приезжих в летний сезон, но остаются недосягаемыми все остальное время года из-за сильных неутихающих штормов. Мартин ненастойчиво и по-дружески проникает в изолированную жизнь обитателей острова. Подробно, но без унылости описывает их быт. Порой как бы невзначай улавливает отблески магического реализма. Еще один осколочек рассыпанной мозаики филиппинского архипелага или урок смиренной документалистики.
Райа Мартин:
"Летом после второго курса я по чистой прихоти отправился на Батанес. Наслушавшись об острове от профессоров социологии и насмотревшись на его волшебные пейзажи на картинках, захватив диски и цифровую камеру, я решился на почти что партизанскую вылазку. За две недели я истратил почти все свои диски, получив в результате около 23 часов записи. Впрочем, закончить фильм не удавалось, до того как мне не исполнилось девятнадцать, занятия в школе вдруг завладели всем моим вниманием. И только после стажировки у Кидлата Тахимика год спустя я набрался достаточно смелости, чтобы взяться за эти многочасовые записи".
"Обаяние Итбаята кроется в том, что его обитатели производят ироническое впечатление старинных островитян со своей культурой. Импульсом для меня послужило желание понять не столько традиции и обычаи, но само их сообщество, практически изолированное от основной части страны. Истории, которые рассказывает остров и его поселенцы, одновременно и новы и знакомы".
Роберт Келер:
"Когда смотришь сцены с рыбаками, вытягивающими свой улов или изо всех сил старающимися пристать к каменному берегу на деревянной лодке в жутко неспокойной воде, нахлынывают воспоминания о висконтиевской "Земля дрожит". Определенно Мартин заслужил уважение местных жителей, ему со своей ручной камерой достаточно долго пришлось жить среди них. При этом ощущения неловкости от присутствия камеры не возникает ни разу. Своего рода чистое впечатление, непосредственный натурализм, движимый энергичным любопытством и задором, рождающий странное и восхитительное ощущение визита. Мартин ничуть не прячется и не скрывает свое положение чужака, но и не уходит в отчуждение. Вместо этого "Остров" демонстрирует запись мгновений, как они есть, освобожденных и очаровательных, без малейшей назойливости".
Доп. информация: Файл взят с KG. Перевод субтитров, тайминг - bagrien
Сэмпл: http://multi-up.com/885486
Качество видео: DVDRip
Формат видео: AVI
Видео: 432x320, 29.970 fps, XviD MPEG-4, 1 720 Kbps
Аудио: MP3, 118 Kbps, 48.0 KHz, 2 channels
Формат субтитров: softsub (SSA/ASS)

MediaInfo

General
Complete name : D:\torrent\Raya Martin - The Island at the End of the World\Raya Martin - The Island at the End of the World cd1.avi
Format : AVI
Format/Info : Audio Video Interleave
File size : 699 MiB
Duration : 52mn 49s
Overall bit rate mode : Variable
Overall bit rate : 1 851 Kbps
Writing application : VirtualDubMod 1.5.4.1 (build 2178/release)
Writing library : VirtualDubMod build 2178/release
Video
ID : 0
Format : MPEG-4 Visual
Format profile : Advanced Simple@L5
Format settings, BVOP : 1
Format settings, QPel : No
Format settings, GMC : No warppoints
Format settings, Matrix : Custom
Codec ID : XVID
Codec ID/Hint : XviD
Duration : 52mn 49s
Bit rate : 1 720 Kbps
Width : 432 pixels
Height : 320 pixels
Display aspect ratio : 4:3
Frame rate : 29.970 fps
Color space : YUV
Chroma subsampling : 4:2:0
Bit depth : 8 bits
Scan type : Progressive
Compression mode : Lossy
Bits/(Pixel*Frame) : 0.415
Stream size : 650 MiB (93%)
Writing library : XviD 1.2.0.dev47 (UTC 2006-11-01)
Audio
ID : 1
Format : MPEG Audio
Format version : Version 1
Format profile : Layer 3
Mode : Joint stereo
Mode extension : MS Stereo
Codec ID : 55
Codec ID/Hint : MP3
Duration : 52mn 49s
Bit rate mode : Variable
Bit rate : 118 Kbps
Nominal bit rate : 128 Kbps
Channel(s) : 2 channels
Sampling rate : 48.0 KHz
Compression mode : Lossy
Stream size : 44.4 MiB (6%)
Alignment : Aligned on interleaves
Interleave, duration : 24 ms (0.72 video frame)
Interleave, preload duration : 370 ms
Writing library : LAME3.97
Encoding settings : -m j -V 4 -q 2 -lowpass 17 --abr 128
Language : English
General
Complete name : D:\torrent\Raya Martin - The Island at the End of the World\Raya Martin - The Island at the End of the World cd2.avi
Format : AVI
Format/Info : Audio Video Interleave
File size : 700 MiB
Duration : 53mn 55s
Overall bit rate mode : Variable
Overall bit rate : 1 814 Kbps
Writing application : VirtualDubMod 1.5.4.1 (build 2178/release)
Writing library : VirtualDubMod build 2178/release
Video
ID : 0
Format : MPEG-4 Visual
Format profile : Advanced Simple@L5
Format settings, BVOP : 1
Format settings, QPel : No
Format settings, GMC : No warppoints
Format settings, Matrix : Custom
Codec ID : XVID
Codec ID/Hint : XviD
Duration : 53mn 55s
Bit rate : 1 684 Kbps
Width : 448 pixels
Height : 336 pixels
Display aspect ratio : 4:3
Frame rate : 29.970 fps
Color space : YUV
Chroma subsampling : 4:2:0
Bit depth : 8 bits
Scan type : Progressive
Compression mode : Lossy
Bits/(Pixel*Frame) : 0.373
Stream size : 649 MiB (93%)
Writing library : XviD 1.2.0.dev47 (UTC 2006-11-01)
Audio
ID : 1
Format : MPEG Audio
Format version : Version 1
Format profile : Layer 3
Mode : Joint stereo
Mode extension : MS Stereo
Codec ID : 55
Codec ID/Hint : MP3
Duration : 53mn 55s
Bit rate mode : Variable
Bit rate : 116 Kbps
Nominal bit rate : 128 Kbps
Channel(s) : 2 channels
Sampling rate : 48.0 KHz
Compression mode : Lossy
Stream size : 44.8 MiB (6%)
Alignment : Aligned on interleaves
Interleave, duration : 24 ms (0.72 video frame)
Interleave, preload duration : 486 ms
Writing library : LAME3.97
Encoding settings : -m j -V 4 -q 2 -lowpass 17 --abr 128
Language : English

Скриншот c названием фильма

[teatrix.ru].t4501.torrent 
Торрент: Зарегистрирован [ 2015-10-08 00:27 ] · 1F8D8FAE35A6E06A26F7A9C39774839674D8F1DC

Скачать .torrent

Скачать

15 KB

Статус: проверено
Скачан: 0 раз
Размер: 1.37 GB
terms.php



Быстрый ответ

Имя:

      
Для отправки сообщений необходимо включить JavaScript
Показать сообщения:    

Текущее время: 11-Дек 05:18

Часовой пояс: UTC + 3


Вы можете начинать темы
Вы можете отвечать на сообщения
Вы не можете редактировать свои сообщения
Вы не можете удалять свои сообщения
Вы не можете голосовать в опросах
Вы не можете прикреплять файлы к сообщениям
Вы можете скачивать файлы