Замки на песке (Яков Бронштейн, Альгимантас Видугирис) [1968, СССР, документальный, короткометражка, DVD5 (Custom)]


Статистика раздачи [Обновить пиров]
Размер:  941 MB   |    Зарегистрирован:  1 год 1 месяц   |    Скачан:  0 раз

Полного источника не было: Никогда

 
   
 
 
 

[Цитировать]

Замки на песке
Страна: СССР
Жанр: документальный, короткометражка
Год выпуска: 1968
Продолжительность: 00:16:31
Перевод: Не требуется
Режиссер: Яков Бронштейн, Альгимантас Видугирис
Описание: Поэтический мир десятилетнего Канатбека, строящего песочные замки, сталкивается с прозой мира реального.
"В 1968 году Видугирис снимает короткометражную поэтическую картину “Замки на песке”. Лента имела оглушительный успех и принесла рекордное для киностудии количество призов. В июне того же 68–го кинокритик В. Шалуновский писал в газете “Советская культура”, что на V Международном фестивале в Кракове среди 70 конкурсных лент, представленных 23 странами, особый успех выпал на долю советского фильма “Замки на песке”. Оба его показа (на конкурсном просмотре и на закрытии фестиваля) шли под дружные аплодисменты в атмосфере исключительной теплоты и доброжелательности. В итоге — высшая награда “Золотой дракон Вавеля”. В том же номере газеты известный польский кинокритик Ежи Плажевский, делясь своими впечатлениями об этой короткометражке, отмечал: “Фильм, представленный режиссерами, не предвещал ничего особенного. Тем более приятным и ощутимым оказался сюрприз. Лента приковала к себе внимание зрителя с первого же кадра…”
А. Видугирис как бы руководствовался страстным призывом Ф. Шиллера: “Не разрушай ребенку ни одного из карточных его домов”… Фильм “Замки на песке” относится к тем редким по своей гармоничности произведениям, в которых невозможно отделить содержание от формы и в которых именно эта полная гармония определяет их успех… Множество зарубежных критиков — гостей фестиваля — говорили мне: “Стоило приезжать в Краков уже даже ради одного только этого фильма!”. Я не удивлюсь, если на последующих краковских фестивалях о пятом из них будут вспоминать как о том, “на котором показали фильм “Замки на песке”".
Вячеслав Тимирбаев. Статья "Наш современник" в газете "Моя Столица".
Доп. информация: DVD предоставила galina61.
Тип релиза: DVD5 (Custom)
Контейнер: DVD-Video
Видео: MPEG Video, 720 x 576 (1.778), 25.000 fps, 6 620 Kbps
Аудио: AC3, 2 channels, 48.0 KHz, 384 Kbps
сэмпл

DVD Info

Title:
Size: 0.92 Gb ( 963 858 KBytes ) - DVD-5
Enabled regions: 1, 2, 3, 4, 5, 6, 8
VTS_01 :
Play Length: 00:16:31
Video: PAL 16:9 (720x576) VBR, Auto Letterboxed
Audio:
Russian (Dolby AC3, 2 ch)

MediaInfo

General
Format : MPEG-PS
File size : 844 MiB
Duration : 16mn 31s
Overall bit rate : 7 146 Kbps
Video
ID : 224 (0xE0)
Format : MPEG Video
Format version : Version 2
Format profile : Main@Main
Format settings, BVOP : Yes
Format settings, Matrix : Default
Format settings, GOP : M=3, N=13
Duration : 16mn 31s
Bit rate mode : Variable
Bit rate : 6 620 Kbps
Nominal bit rate : 8 816 Kbps
Width : 720 pixels
Height : 576 pixels
Display aspect ratio : 16:9
Frame rate : 25.000 fps
Standard : PAL
Color space : YUV
Chroma subsampling : 4:2:0
Bit depth : 8 bits
Scan type : Progressive
Bits/(Pixel*Frame) : 0.638
Stream size : 782 MiB (93%)
Audio
ID : 128 (0x80)
Format : AC-3
Format/Info : Audio Coding 3
Mode extension : CM (complete main)
Duration : 16mn 30s
Bit rate mode : Constant
Bit rate : 384 Kbps
Channel(s) : 2 channels
Channel positions : Front: L R
Sampling rate : 48.0 KHz
Bit depth : 16 bits
Video delay : 40ms
Stream size : 45.4 MiB (5%)

Скриншоты меню

[teatrix.ru].t4503.torrent 
Торрент: Зарегистрирован [ 2015-10-08 00:27 ] · D0AEE4791F557DBD1C4D5E4218C99387E3A712A9

Скачать .torrent

Скачать

19 KB

Статус: проверено
Скачан: 0 раз
Размер: 941 MB
terms.php



Быстрый ответ

Имя:

      
Для отправки сообщений необходимо включить JavaScript
Показать сообщения:    

Текущее время: 05-Дек 23:35

Часовой пояс: UTC + 3


Вы можете начинать темы
Вы можете отвечать на сообщения
Вы не можете редактировать свои сообщения
Вы не можете удалять свои сообщения
Вы не можете голосовать в опросах
Вы не можете прикреплять файлы к сообщениям
Вы можете скачивать файлы