Кот / Дух времени / Вьетнамская опера / De Poes / The Cat / De tijdgeest / The Spirit of the Times / Vietnam Opera (Йохан ван дер Кёйкен / Johan van der Keuken) [1968,1973 Нидерланды, короткий метр, экспериментальный, DVDRip] + Sub Rus + Original Dut


Статистика раздачи [Обновить пиров]
Размер:  764 MB   |    Зарегистрирован:  1 год 2 месяца   |    Скачан:  0 раз

Полного источника не было: Никогда

 
   
 
 
 

[Цитировать]

Короткометражные фильмы Йохана ван дер Кейкена
Кот / De Poes / The Cat
Страна: Нидерланды
Жанр: короткий метр, экспериментальный
Год выпуска: 1968
Продолжительность: 00:05:48
Перевод: субтитры
Cубтитры: русский
Оригинальная аудиодорожка: нидерландский
Режиссер: Йохан ван дер Кёйкен / Johan van der Keuken
В ролях: не указано
Описание: Фильм, который в порядке эксперимента, хочет стать источником перемен, запечатлевая кота, девушку и жизнь за окном.
Дух времени / De tijdgeest / The Spirit of the Times
Страна: Нидерланды
Жанр: короткий метр, документальный
Год выпуска: 1968
Продолжительность: 00:43:03
Перевод: субтитры
Cубтитры: русский
Оригинальная аудиодорожка: нидерландский
Режиссер: Йохан ван дер Кёйкен / Johan van der Keuken
В ролях: не указано
Описание: Глэм-рок, блёстки стираются с глаз. Офисные служащие. Война во Вьетнаме. Пикеты возле посольства США. «Джонсон – убийца!». Хиппи. Зацикленные действия. Маски. Всё вокруг сон, иллюзия. Мистериальный театр. Слепые прозревают. 1968 год.
Вьетнамская опера / Vietnam Opera
Страна: Нидерланды
Жанр: короткий метр, документальный
Год выпуска: 1973
Продолжительность: 00:10:29
Перевод: субтитры
Cубтитры: русский
Оригинальная аудиодорожка: нидерландский
Режиссер: Йохан ван дер Кёйкен / Johan van der Keuken
В ролях: не указано
Описание: Во вьетнамской опере поют о войне и сопротивлении. Вьетнамцы танцуют с оружием, голландцы что-то жуют. Вьетнамцы переживают бомбёжки, а голландцы жуют. Остаётся лишь прибавить света, чтобы понять, как война становится частью культуры.
Доп. информация: Перевод – Людмила Сливинская, подготовка субтитров – alex-kin.
Огромная благодарность соответственно marx и peppermint (КГ)!

Сэмплы

Кот / De Poes / The Cat
http://multi-up.com/819874
Дух времени / De tijdgeest / The Spirit of the Times
http://multi-up.com/819883
Вьетнамская опера / Vietnam Opera
http://multi-up.com/819897

Технические данные

Кот / De Poes / The Cat
Качество видео: DVDRip
Формат видео: AVI
Видео: XviD MPEG-4 at 1715 kbps, 0.22 bit/pixel, 640x480 (1.33:1) at 25 fps
Аудио: MPEG Layer 3 at 160.00 kbps, 2 ch, 44.100 kHz
Дух времени / De tijdgeest / The Spirit of the Times
Качество видео: DVDRip
Формат видео: AVI
Видео: XviD MPEG-4 at 1622 kbps, 0.21 bit/pixel, 640x480 (1.33:1) at 25 fps
Аудио: MPEG Layer 3 at 160.00, 2 ch, 44.100 kHz
Вьетнамская опера / Vietnam Opera
Качество видео: DVDRip
Формат видео: AVI
Видео: XviD MPEG-4 at 1595 kbps, 0.22 bit/pixel, 640x480 (1.33:1) at 23.976 fps
Аудио: MPEG Layer 3 at 192.00, 2 ch, 48 kHz

Субтитры

Формат субтитров: softsub (SRT)
Кот
2
00:00:26,747 --> 00:00:29,272
Кот.
3
00:00:44,131 --> 00:00:46,895
Фильм,
всего лишь оправдывающий...
4
00:00:47,201 --> 00:00:51,934
...обычные ожидания зрителя...
5
00:00:53,240 --> 00:00:57,142
...это искажение языка.
6
00:02:03,310 --> 00:02:08,111
Фильм может стать
источником перемен.
7
00:02:09,183 --> 00:02:12,440
Чтобы стать таковым,
фильм должен действовать
8
00:02:12,800 --> 00:02:14,815
вопреки обычным ожиданиям.
9
00:02:15,456 --> 00:02:21,053
Он должен рождать
подвижное равновесие форм,
10
00:02:21,629 --> 00:02:25,759
в которых может быть
описана наша реальность.
11
00:02:26,300 --> 00:02:31,533
Наше общество направлено
на ограничение людей.
12
00:04:45,739 --> 00:04:51,268
Искусство может стать
средством их освобождения.
13
00:04:52,079 --> 00:04:56,345
Помогая увидеть себя и других
в более ясном свете.
14
00:04:57,518 --> 00:05:01,682
Поэтому фильм может быть
очень простым.
15
00:05:02,990 --> 00:05:07,518
Фильм, к примеру,
это сочетание...
16
00:05:07,995 --> 00:05:14,195
...приглушенности шерсти
и звонкого эха стекла.
17
00:05:24,178 --> 00:05:27,238
Кис-кис...
18
00:05:29,082 --> 00:05:30,242
Кис...
19
00:05:32,286 --> 00:05:35,221
Кис, иди сюда... да.
20
00:05:35,389 --> 00:05:38,984
Кис-кис-кис.
21
00:05:40,060 --> 00:05:41,493
Кис-кис.
22
00:05:43,864 --> 00:05:46,264
Кис.
Дух времени
49
00:14:16,155 --> 00:14:18,146
Ну хорошо, сны - это иллюзия...
50
00:14:22,595 --> 00:14:23,687
Иллюзия?
51
00:14:51,724 --> 00:14:53,419
- Мне снился сон.
- Сон? Какой?
52
00:15:29,461 --> 00:15:33,454
Оранжевые ублюдки,
оранжевые ублюдки!
53
00:15:33,699 --> 00:15:36,497
Да здравствует Республика!
54
00:15:53,052 --> 00:15:53,916
Полиция!
55
00:16:06,966 --> 00:16:09,833
- Что американцы делают во Вьетнаме?
- Убивают!
56
00:16:10,035 --> 00:16:12,765
- Что американцы делают во Вьетнаме?
- Убивают!
57
00:16:16,308 --> 00:16:18,003
Попусту тратят время!
58
00:16:19,345 --> 00:16:22,837
Джонсон - убийца!
Джонсон - убийца!
59
00:17:11,063 --> 00:17:12,621
Парни, подождите немного.
60
00:17:16,602 --> 00:17:22,507
Американские убийцы,
руки прочь от Вьетнама!
61
00:17:22,708 --> 00:17:24,676
АМЕРИКАНЦЫ, ВОН ИЗ ВЬЕТНАМА
62
00:17:25,520 --> 00:17:27,745
Да здравствует, Вьетконг!
63
00:17:31,817 --> 00:17:35,412
Джонсона под трибунал!
64
00:17:35,621 --> 00:17:41,116
- Что американцы делают во Вьетнаме?
- Убивают!
65
00:18:43,288 --> 00:18:46,000
Южноамериканец,
слепой на один глаз больше 10 лет,
66
00:18:46,040 --> 00:18:50,384
вновь обрел зрение после
трансплантации роговицы обезьяны.
67
00:18:50,596 --> 00:18:54,191
До: Слепой глаз.
После: Глаз после трансплантации.
68
00:18:54,666 --> 00:18:59,000
21, 22, 23...
69
00:18:59,371 --> 00:19:03,774
...24, 25, 26...
70
00:19:04,209 --> 00:19:05,540
...27...
Вьетнамская опера
7
00:01:38,264 --> 00:01:40,926
Сбрось и иди на 140.
8
00:01:41,501 --> 00:01:43,162
Да, 140.
9
00:01:47,874 --> 00:01:51,970
143 темно.
144, ты можешь дать, Геррит?
10
00:01:52,212 --> 00:01:54,874
Да? А потом 146 темно.
11
00:01:56,116 --> 00:01:58,914
Да, а это 150.
12
00:02:20,766 --> 00:02:22,241
["КОРОЛЬ ЛИР"]
13
00:02:35,280 --> 00:02:37,460
[США,
убирайтесь домой!]
14
00:08:47,360 --> 00:08:49,328
Я думаю, что война сейчас...
15
00:08:50,329 --> 00:08:52,854
...стала частью...
16
00:08:53,366 --> 00:08:56,426
нашей страны, если хотите.
17
00:08:56,836 --> 00:08:58,997
Эти песни и танцы отражают...
18
00:08:59,171 --> 00:09:02,265
...всю нашу культуру
и нашу цивилизацию.
19
00:09:02,441 --> 00:09:05,001
К несчастью, эта борьба...
20
00:09:06,579 --> 00:09:10,379
...тоже повлияла
на нашу цивилизацию...
21
00:09:10,917 --> 00:09:13,852
...которая, может быть,
стала сильнее из-за нее.
22
00:09:14,020 --> 00:09:16,265
В каком-то смысле,
23
00:09:16,348 --> 00:09:19,273
она приобрела свою форму
благодаря этой борьбе,
24
00:09:19,351 --> 00:09:20,060
вы так не думаете?
25
00:09:20,192 --> 00:09:23,650
Но главное здесь то, что
мы показываем нашу цивилизацию.
26
00:09:24,030 --> 00:09:27,431
Нашу культуру -
через наши песни и танцы.
27
00:09:27,767 --> 00:09:34,400
И сейчас они отражают
нашу борьбу, понимаете?

MediaInfo

Кот / De Poes / The Cat
Формат : AVI
Формат/Информация : Audio Video Interleave
Профиль формата : OpenDML
Настройки формата : rec
Размер файла : 78,2 Мбайт
Продолжительность : 5 м. 48 с.
Общий поток : 1883 Кбит/сек
Программа кодирования : AVI-Mux GUI 1.17.8, Aug 30 2008 12:36:58
Видео
Идентификатор : 0
Формат : MPEG-4 Visual
Профиль формата : Advanced Simple@L5
Параметр BVOP формата : 4
Параметр QPel формата : Нет
Параметр GMC формата : Без точки перехода
Параметр матрицы формата : Default (MPEG)
Идентификатор кодека : XVID
Идентификатор кодека/Подсказка : XviD
Продолжительность : 5 м. 48 с.
Битрейт : 1713 Кбит/сек
Ширина : 640 пикс.
Высота : 480 пикс.
Соотношение сторон : 4:3
Частота кадров : 25,000 кадр/сек
Цветовое пространство : YUV
Подвыборка цветности : 4:2:0
Битовая глубина : 8 бит
Тип развёртки : Прогрессивная
Метод сжатия : С потерями
Бит/(Пиксели*Кадры) : 0.223
Размер потока : 71,1 Мбайт (91%)
Библиотека кодирования : XviD 1.2.1 (UTC 2008-12-04)
Аудио
Идентификатор : 1
Формат : MPEG Audio
Версия формата : Version 1
Профиль формата : Layer 3
Идентификатор кодека : 55
Идентификатор кодека/Подсказка : MP3
Продолжительность : 5 м. 48 с.
Вид битрейта : Постоянный
Битрейт : 160 Кбит/сек
Канал(ы) : 2 канала(ов)
Частота : 44,1 КГц
Метод сжатия : С потерями
Размер потока : 6,65 Мбайт (8%)
Выравнивание : Соединение по промежуткам
Продолжительность промежутка : 26 мс. (0,65 видеокадр)
Время предзагрузки промежутка : 182 ms
Заголовок : Neuer Track 1
Дух времени / De tijdgeest / The Spirit of the Times
Формат : AVI
Формат/Информация : Audio Video Interleave
Профиль формата : OpenDML
Настройки формата : rec
Размер файла : 551 Мбайт
Продолжительность : 43 м.
Общий поток : 1790 Кбит/сек
Программа кодирования : AVI-Mux GUI 1.17.8, Aug 30 2008 12:36:58
Видео
Идентификатор : 0
Формат : MPEG-4 Visual
Профиль формата : Advanced Simple@L5
Параметр BVOP формата : 2
Параметр QPel формата : Нет
Параметр GMC формата : Без точки перехода
Параметр матрицы формата : Default (MPEG)
Идентификатор кодека : XVID
Идентификатор кодека/Подсказка : XviD
Продолжительность : 43 м.
Битрейт : 1621 Кбит/сек
Ширина : 640 пикс.
Высота : 480 пикс.
Соотношение сторон : 4:3
Частота кадров : 25,000 кадр/сек
Цветовое пространство : YUV
Подвыборка цветности : 4:2:0
Битовая глубина : 8 бит
Тип развёртки : Прогрессивная
Метод сжатия : С потерями
Бит/(Пиксели*Кадры) : 0.211
Размер потока : 499 Мбайт (91%)
Библиотека кодирования : XviD 1.2.1 (UTC 2008-12-04)
Аудио
Идентификатор : 1
Формат : MPEG Audio
Версия формата : Version 1
Профиль формата : Layer 3
Идентификатор кодека : 55
Идентификатор кодека/Подсказка : MP3
Продолжительность : 43 м.
Вид битрейта : Постоянный
Битрейт : 160 Кбит/сек
Канал(ы) : 2 канала(ов)
Частота : 44,1 КГц
Метод сжатия : С потерями
Размер потока : 49,3 Мбайт (9%)
Выравнивание : Соединение по промежуткам
Продолжительность промежутка : 26 мс. (0,65 видеокадр)
Время предзагрузки промежутка : 182 ms
Заголовок : Neuer Track 1
Вьетнамская опера / Vietnam Opera
Формат : AVI
Формат/Информация : Audio Video Interleave
Размер файла : 135 Мбайт
Продолжительность : 10 м.
Общий поток : 1797 Кбит/сек
Программа кодирования : VirtualDubMod 1.5.10.2 Fr | www.trad-fr.com || (build 2540/release)
Библиотека кодирования : VirtualDubMod build 2540/release
Видео
Идентификатор : 0
Формат : MPEG-4 Visual
Профиль формата : Advanced Simple@L5
Параметр BVOP формата : 2
Параметр QPel формата : Нет
Параметр GMC формата : Без точки перехода
Параметр матрицы формата : Default (H.263)
Режим смешивания : Сжатый битовый поток
Идентификатор кодека : XVID
Идентификатор кодека/Подсказка : XviD
Продолжительность : 10 м.
Битрейт : 1595 Кбит/сек
Ширина : 640 пикс.
Высота : 480 пикс.
Соотношение сторон : 4:3
Частота кадров : 23,976 кадр/сек
Цветовое пространство : YUV
Подвыборка цветности : 4:2:0
Битовая глубина : 8 бит
Тип развёртки : Прогрессивная
Метод сжатия : С потерями
Бит/(Пиксели*Кадры) : 0.217
Размер потока : 120 Мбайт (89%)
Библиотека кодирования : XviD 1.2.1 (UTC 2008-12-04)
Аудио
Идентификатор : 1
Формат : MPEG Audio
Версия формата : Version 1
Профиль формата : Layer 3
Режим : Joint stereo
Расширение режима : MS Stereo
Идентификатор кодека : 55
Идентификатор кодека/Подсказка : MP3
Продолжительность : 10 м.
Вид битрейта : Постоянный
Битрейт : 192 Кбит/сек
Канал(ы) : 2 канала(ов)
Частота : 48,0 КГц
Метод сжатия : С потерями
Размер потока : 14,4 Мбайт (11%)
Выравнивание : Разделение по промежуткам
Продолжительность промежутка : 42 мс. (1,00 видеокадр)
Время предзагрузки промежутка : 500 ms

Скриншоты c названиями фильмов

Кот / De Poes / The Cat

Дух времени / De tijdgeest / The Spirit of the Times

Вьетнамская опера / Vietnam Opera

Скриншоты

Кот / De Poes / The Cat



Дух времени / De tijdgeest / The Spirit of the Times



Вьетнамская опера / Vietnam Opera


[teatrix.ru].t4504.torrent 
Торрент: Зарегистрирован [ 2015-10-08 00:27 ] · A97ED853A402B09F5783700CFC8850C50C84F3C2

Скачать .torrent

Скачать

16 KB

Статус: проверено
Скачан: 0 раз
Размер: 764 MB
terms.php



Быстрый ответ

Имя:

      
Для отправки сообщений необходимо включить JavaScript
Показать сообщения:    

Текущее время: 10-Дек 19:41

Часовой пояс: UTC + 3


Вы можете начинать темы
Вы можете отвечать на сообщения
Вы не можете редактировать свои сообщения
Вы не можете удалять свои сообщения
Вы не можете голосовать в опросах
Вы не можете прикреплять файлы к сообщениям
Вы можете скачивать файлы