Пляжные выходные с ЖЛГ / A Weekend at the Beach, w. Jean-Luc Godard (Ирэ Шнайдер / Ira Schneider) [1978, США, видеоискусство, домашнее кино, VHSRip]


Статистика раздачи [Обновить пиров]
Размер:  120 MB   |    Зарегистрирован:  1 год 2 месяца   |    Скачан:  0 раз

Полного источника не было: Никогда

 
   
 
 
 

[Цитировать]

Пляжные выходные с ЖЛГ / A Weekend at the Beach, w. Jean-Luc Godard
Страна: США
Жанр: video-art (видеоискусство), home movie (домашнее кино)
Год выпуска: 1978
Продолжительность: 00:08:17
Перевод: Не требуется
Режиссер: Ирэ Шнайдер / Ira Schneider
В ролях: Жан-Люк Годар, Вим Вендерс, Жан-Пьер Горен, Джим Мак Брайдт, Том Лудди
Описание: В один из солнечных летних дней 1978 года Жан-Люк Годар с друзьями отдыхают на пляже. Жан-Пьер Горен жует персик. Приходят Джим Мак Брайдт и Том Лудди, затем к ним присоединяется Вим Вендерс. Мак Брайдт прощается и уходит.
Вскоре Годар и Горен, только что снявшие "Все в порядке" (1978) перестанут работать вместе, Вендерс, еще полный иллюзий от скорого сотрудничества с Копполой, будет мучиться со своим "Хемметом" (1982) и только Мак Брайдт с Ричардом Гиром покажет всем здоровую фигу своей версией шедевра ЖЛГ "На последнем дыхании" (1982).
Рип найден на КГ.
Приятного Вам просмотра!
Доп. информация: Закадровый комментарий ограничивается несколькими поясняющими редложениями: "это Годар. Это Персик. Это Вендерс. Сегодня хороший день", и понятен даже совсем не владеющим языком.
подробнее о фотографе и видеоартисте Ирэ Шнайдере можно почитать на немецкой Вики: http://de.wikipedia.org/wiki/Ira_Schneider
Качество видео: VHSRip
Формат видео: AVI
Видео: Video: XVID 640x480 29.97fps 1811Kbps [Video 0]
Аудио: Audio: MPEG Audio Layer 3 48000Hz stereo 192Kbps [Audio 1]

MediaInfo

General
Complete name : D:\Torrents\Weekend.at.the.beach.JLG.avi
Format : AVI
Format/Info : Audio Video Interleave
File size : 120 MiB
Duration : 8mn 17s
Overall bit rate : 2 017 Kbps
Video
ID : 0
Format : MPEG-4 Visual
Format profile : Simple@L3
Format settings, BVOP : No
Format settings, QPel : No
Format settings, GMC : No warppoints
Format settings, Matrix : Default (H.263)
Codec ID : XVID
Codec ID/Hint : XviD
Duration : 8mn 17s
Bit rate : 1 811 Kbps
Width : 640 pixels
Height : 480 pixels
Display aspect ratio : 4:3
Frame rate : 29.970 fps
Color space : YUV
Chroma subsampling : 4:2:0
Bit depth : 8 bits
Scan type : Progressive
Compression mode : Lossy
Bits/(Pixel*Frame) : 0.197
Stream size : 107 MiB (90%)
Writing library : XviD 1.1.2 (UTC 2006-11-01)
Audio
ID : 1
Format : MPEG Audio
Format version : Version 1
Format profile : Layer 3
Mode : Joint stereo
Mode extension : MS Stereo
Codec ID : 55
Codec ID/Hint : MP3
Duration : 8mn 17s
Bit rate mode : Constant
Bit rate : 192 Kbps
Channel(s) : 2 channels
Sampling rate : 48.0 KHz
Compression mode : Lossy
Stream size : 11.4 MiB (10%)
Alignment : Split accross interleaves
Interleave, duration : 24 ms (0.72 video frame)

Скриншот c названием фильма

Скриншоты

[teatrix.ru].t4505.torrent 
Торрент: Зарегистрирован [ 2015-10-08 00:27 ] · 9D49918FD9401D4BD6A0AFEF790275B9B79B2411

Скачать .torrent

Скачать

19 KB

Статус: проверено
Скачан: 0 раз
Размер: 120 MB
terms.php



Быстрый ответ

Имя:

      
Для отправки сообщений необходимо включить JavaScript
Показать сообщения:    

Текущее время: 08-Дек 01:19

Часовой пояс: UTC + 3


Вы можете начинать темы
Вы можете отвечать на сообщения
Вы не можете редактировать свои сообщения
Вы не можете удалять свои сообщения
Вы не можете голосовать в опросах
Вы не можете прикреплять файлы к сообщениям
Вы можете скачивать файлы