Висконсин: Путешествие к смерти / Wisconsin Death Trip (Джеймс Марш / James Marsh) [1999, Великобритания, США, драма, исторический, DVDRip] + Sub Rus + Original Eng


Статистика раздачи [Обновить пиров]
Размер:  698 MB   |    Зарегистрирован:  1 год 2 месяца   |    Скачан:  0 раз

Полного источника не было: Никогда

 
   
 
 
 

[Цитировать]

Висконсин: Путешествие к смерти / Wisconsin Death Trip
Страна: Великобритания, США
Жанр: драма, исторический
Год выпуска: 1999
Продолжительность: 01:18:04
Перевод: Субтитры
Cубтитры: русские
Оригинальная аудиодорожка: английский
Режиссер: Джеймс Марш / James Marsh
В ролях: Иэн Холм (начитка)/Ian Holm (narrator), Джеффри Голден/Jeffrey Golden, Джо Вукелич/Jo Vukelich, Маркус Монро/Marcus Monroe, Мэрелин Уайт/Marilyn White, Джон Шнайдер/John Schneider, Джон Бот/John Baltes, Рилин МакМиллион/Raeleen McMillion, Криста Грэмбоу/Krista Grambow, Клэй Антон/Clay Anton
Описание: «Висконсин: путешествие к смерти» – документальная драма Джеймса Марша о жизни в маленьком американском городке в последнее десятилетие 19 века. Повествование фокусируется на том, в каких масштабах тогда совершались преступления, самоубийства и немыслимые поступки. Это исследование повседневности и безумия, основанное на странных и тревожных фотографиях того времени и соответствующих сообщениях из местной газеты. При съемках создатели фильма ориентировались на стилистику старинных фотографий, и весь материал снят на черно-белую 16мм пленку. В качестве актеров подобраны колоритные жители той же местности. Текст начитан Иэном Холмом.
Доп. информация: Тайминг и перевод на слух – Abris, подготовка субтитров – alex-kin.
Видео содержит дополнительную аудиодорожку с комментариями режиссера и оператора-постановщика (без перевода).
Файл взят с Карагарги, за что благодарим daisysaint.
Фильм основан на одноименной книге историка Майкла Леси, фотографии из которой доступны по ссылке

Фотографии из книги Майкла Леси

http://www.wisconsinhistory.org/whi/results.asp?pag...sults_relevancy=
Сэмпл: http://multi-up.com/871534
Качество видео: DVDRip
Формат видео: AVI
Видео: XviD MPEG-4 at 968 kbps, 0.27 bit/pixel, 512x288 (1.78:1) at 23.976 fps
Аудио: MPEG Layer 3 at 125.47, 2 ch, 48 kHz
Аудио 2: MPEG Layer 3 at 133.39, 2 ch, 48 kHz
Формат субтитров: softsub (SRT)

Фрагмент субтитров

239
00:36:27,300 --> 00:36:33,240
На повестке вопрос:
почему мужчины пьют.
240
00:36:51,200 --> 00:36:56,610
В прошлую среду доктор Уир
выступил с докладом
241
00:36:56,747 --> 00:37:00,296
о тяге некоторых пчел к пьянству.
242
00:37:00,918 --> 00:37:02,918
вот, что он поведал:
243
00:37:04,004 --> 00:37:07,092
"Ко мне в лабораторию
принесли пьяную пчелу,
244
00:37:07,257 --> 00:37:09,777
чтобы осмотреть ее под микроскопом.
245
00:37:10,200 --> 00:37:12,650
Пчела была так пьяна,
246
00:37:12,850 --> 00:37:16,925
что еле могла перевернуться
со спины и встать на лапки,
247
00:37:17,250 --> 00:37:22,249
а через пару минут снова падала,
пьяное, бессмысленное ничтожество".
248
00:38:00,100 --> 00:38:03,999
С Библией в одной руке,
кинжалом - в другой,
249
00:38:04,379 --> 00:38:09,350
Джон Айзексон держал в страхе
3 офицеров и 25 мирных жителей
250
00:38:09,760 --> 00:38:12,840
на религиозном собрании
в Вест Супирии.
251
00:38:13,263 --> 00:38:17,273
Его охватил религиозный экстаз.
252
00:38:17,893 --> 00:38:22,749
Он поверил, что Бог послал его
уничтожить Дьявола.
253
00:38:25,234 --> 00:38:31,294
Он был схвачен и отправлен поездом
в сумасшедший дом Мендоты.
254
00:38:48,717 --> 00:38:54,502
Мэри Суини, бывшая учительница,
неумолимо разбивающая окна,
255
00:38:54,806 --> 00:39:01,924
завершила свое турне
по городам и тюрьмам штата.
256
00:39:02,914 --> 00:39:09,724
она утверждает, что за это время
нанесла ущерб в 50 000 $.
257
00:39:35,355 --> 00:39:40,700
Джон Айзексон, сошедший с ума на
религиозном собрании в Вест Супирии,
258
00:39:41,111 --> 00:39:47,076
отчаянно пытался бежать, когда его
отправили поездом в сумасшедший дом.
259
00:39:47,444 --> 00:39:51,731
Хотя он был связан по рукам и ногам,
ему удалось спрыгнуть с поезда.

MediaInfo

General
Complete name : James Marsh_Wisconsin Death Trip (1999).avi
Format : AVI
Format/Info : Audio Video Interleave
File size : 698 MiB
Duration : 1h 18mn
Overall bit rate mode : Variable
Overall bit rate : 1 250 Kbps
Writing application : VirtualDubMod 1.5.4.1 (build 2178/release)
Writing library : VirtualDubMod build 2178/release
Video
ID : 0
Format : MPEG-4 Visual
Format settings, BVOP : No
Format settings, QPel : No
Format settings, GMC : No warppoints
Format settings, Matrix : Default (H.263)
Codec ID : XVID
Codec ID/Hint : XviD
Duration : 1h 18mn
Bit rate : 970 Kbps
Width : 512 pixels
Height : 288 pixels
Display aspect ratio : 16:9
Frame rate : 23.976 fps
Color space : YUV
Chroma subsampling : 4:2:0
Bit depth : 8 bits
Scan type : Progressive
Compression mode : Lossy
Bits/(Pixel*Frame) : 0.274
Stream size : 542 MiB (78%)
Audio #1
ID : 1
Format : MPEG Audio
Format version : Version 1
Format profile : Layer 3
Mode : Joint stereo
Codec ID : 55
Codec ID/Hint : MP3
Duration : 1h 18mn
Bit rate mode : Variable
Bit rate : 128 Kbps
Channel(s) : 2 channels
Sampling rate : 48.0 KHz
Compression mode : Lossy
Stream size : 70.1 MiB (10%)
Alignment : Aligned on interleaves
Interleave, duration : 24 ms (0.58 video frame)
Interleave, preload duration : 146 ms
Writing library : LAME3.90.
Encoding settings : -m j -V 4 -q 2 -lowpass 17.6 --abr 128
Audio #2
ID : 2
Format : MPEG Audio
Format version : Version 1
Format profile : Layer 3
Mode : Joint stereo
Codec ID : 55
Codec ID/Hint : MP3
Duration : 1h 18mn
Bit rate mode : Variable
Bit rate : 128 Kbps
Channel(s) : 2 channels
Sampling rate : 48.0 KHz
Compression mode : Lossy
Stream size : 74.5 MiB (11%)
Alignment : Aligned on interleaves
Interleave, duration : 24 ms (0.58 video frame)
Interleave, preload duration : 138 ms
Writing library : LAME3.90.
Encoding settings : -m j -V 4 -q 2 -lowpass 17.6 --abr 128

Скриншот c названием фильма

Скриншоты

[teatrix.ru].t4508.torrent 
Торрент: Зарегистрирован [ 2015-10-08 00:27 ] · 6F8536C5BCADE781DAAE530F8D66FFDD474D2E73

Скачать .torrent

Скачать

14 KB

Статус: проверено
Скачан: 0 раз
Размер: 698 MB
terms.php



Быстрый ответ

Имя:

      
Для отправки сообщений необходимо включить JavaScript
Показать сообщения:    

Текущее время: 10-Дек 21:37

Часовой пояс: UTC + 3


Вы можете начинать темы
Вы можете отвечать на сообщения
Вы не можете редактировать свои сообщения
Вы не можете удалять свои сообщения
Вы не можете голосовать в опросах
Вы не можете прикреплять файлы к сообщениям
Вы можете скачивать файлы