Как дела, Рудольф Минг? / How are you doing Rudolf Ming / Kā Tev klājas, Rūdolf Ming? (Робертс Рубинс / Roberts Rubins / Roberts Rubīns) [2010, Латвия, документальный, арт-хаус, DVB] DVO (Селена Интернешнл)


Статистика раздачи [Обновить пиров]
Размер:  832 MB   |    Зарегистрирован:  1 год 1 месяц   |    Скачан:  0 раз

Полного источника не было: Никогда

 
   
 
 
 

[Цитировать]

Как дела, Рудольф Минг?
How are you doing Rudolf Ming / Kā Tev klājas, Rūdolf Ming?- Страна: Латвия
Жанр: документальный, арт-хаус
Год выпуска: 2010
Продолжительность: 01:00:01Перевод: Профессиональный (двухголосый закадровый) (кинокомпания "Селена Интернешнл" по заказу телеканала "24ДОК")
Cубтитры: нет
Оригинальная аудиодорожка: нет
Режиссер: Робертс Рубинс / Roberts Rubīns
В ролях: Рудольф Микельсонс / Rūdolf Miķelsons (Rūdolf Ming)
Описание: 13-летний Рудольф Микельсонс из города Талсы имеет две навязчивые страсти: кино и насилие. Под псевдонимом Рудольф Минг он создает домашние фильмы ужасов на длинных лентах пергаментной бумаги и с большим артистизмом комментирует их зрителям. Он – мальчик с многосторонними интересами, который увлекается, например, конструированием капканов и собирает плакаты кинофильмов. Документальный фильм раскрывает сложный конфликт, который возникает между миром богатой детской фантазии и правилами, принятыми обществом.
Посыл фильма крайне позитивен – хотя Рудольф и довольно сложная личность, семья и окружающие с любовью позволяют свободно выражаться творческой сущности мальчика. А его наставник - католический священник - просит Рудольфа создать фильм для общины на основе Библии. (анонс канала "24ДОК")
Доп. информация: Запись со спутника (канал "24ДОК").
Награды: награда UNICEF - EBS International Documentary Film Festival in Seoul, South Korea 2011; Гран-при "Золотой кентавр" XXI международного кинофестиваля "Послание к Человеку" (Санкт-Петербург) 2011; особый приз Союза украинских кинематографистов на фестивале документального кино "Docudays" 2011; 2-я премия на Международном фестивале документального кино в Вильнюсе 2011.
Информация: http://www.imdb.com/title/tt2202449/
Сэмпл: http://multi-up.com/871392
Качество видео: DVB
Формат видео: MPEG-PS (См. при проблемах с просмотром видео)
Видео: MPEG Video 2, 720x576@768x576 (4:3), 25 fps, ~1706 kbps avg, 0.165 bit/pixel
Аудио: 48 kHz, MPEG Audio 2, 2 ch, ~192.00 kbps avg

MediaInfo

Полное имя : H:\My Torrents\[apreder]How_are_you_doing_Rudolf_Ming(2010)DVB.mpgФормат : MPEG-PSРазмер файла : 832 МбайтПродолжительность : 1 ч. 0 м.Режим общего битрейта : ПеременныйОбщий поток : 1936 Кбит/сек
ВидеоИдентификатор : 224 (0xE0)Формат : MPEG VideoВерсия формата : Version 2Профиль формата : Main@MainПараметр BVOP формата : ДаПараметр матрицы формата : ВыборочнаяПараметр GOP формата : VariableПродолжительность : 1 ч. 0 м.Вид битрейта : ПеременныйБитрейт : 1706 Кбит/секШирина : 720 пикселейВысота : 576 пикселейСоотношение сторон : 4:3Частота кадров : 25,000 кадров/секСтандарт вещания : PALЦветовое пространство : YUVСубдискретизация насыщенности : 4:2:0Битовая глубина : 8 битТип развёртки : ЧересстрочнаяПорядок развёртки : Верхнее поле первоеМетод сжатия : С потерямиБит/(Пиксели*Кадры) : 0.165TimeCode_FirstFrame : 00:00:00:00TimeCode_Source : Group of pictures headerРазмер потока : 733 Мбайт (88%)
АудиоИдентификатор : 192 (0xC0)Формат : MPEG AudioВерсия формата : Version 1Профиль формата : Layer 2Продолжительность : 1 ч. 0 м.Вид битрейта : ПостоянныйБитрейт : 192 Кбит/секКаналы : 2 каналаЧастота : 48,0 КГцМетод сжатия : С потерямиРазмер потока : 82,5 Мбайт (10%)

Скриншот c названием фильма

Скриншоты


Скриншоты анаморфированные


-771/753√
[teatrix.ru].t4509.torrent 
Торрент: Зарегистрирован [ 2015-10-08 00:27 ] · 73335ECBAD738C7F0BDADF976438962F18989713

Скачать .torrent

Скачать

17 KB

Статус: проверено
Скачан: 0 раз
Размер: 832 MB
terms.php



Быстрый ответ

Имя:

      
Для отправки сообщений необходимо включить JavaScript
Показать сообщения:    

Текущее время: 04-Дек 02:57

Часовой пояс: UTC + 3


Вы можете начинать темы
Вы можете отвечать на сообщения
Вы не можете редактировать свои сообщения
Вы не можете удалять свои сообщения
Вы не можете голосовать в опросах
Вы не можете прикреплять файлы к сообщениям
Вы можете скачивать файлы