Ангело-почта (2 серии) (Олеся Фокина) [2006 г., документальный, Бродский - наше всё.., DVDRip]


Статистика раздачи [Обновить пиров]
Размер:  1.63 GB   |    Зарегистрирован:  1 год 1 месяц   |    Скачан:  0 раз

Полного источника не было: Никогда

 
   
 
 
 

[Цитировать]

Ангело-почта (2 серии)
Год выпуска: 2006
Страна: Россия
Жанр: документальный, Бродский - наше всё..
Продолжительность: 01:33:41
Перевод: Не требуется
Режиссер: Олеся Фокина
В ролях: Зоя и Анастасия Томашевские
Описание: События фильма происходят в доме № 9 на канале Грибоедова, в Петербурге. Героини - Зоя и Анастасия Томашевские, дочь и внучка знаменитого ученого-пушкиниста Бориса Викторовича Томашевского. В разные времена в доме Томашевских находили приют и спасение Анна Ахматова, Святослав Рихтер, Иосиф Бродский, в дальнейшем называвший переписку с Настей Томашевской "Ангело-почтой".
Доп. информация: "Ангело-почта" или приглашение на суд
Качество: DVDRip
Формат: AVI
Видео кодек: DivX
Аудио кодек: AC3
Видео: анаморф 4:3, 704x576@768x576, 25 fps, DivX Codec 6.8.3 ~2282 kbps avg, 0.23 bit/pixel
Аудио: 48 kHz, AC3 Dolby Digital, 2/0 (L,R) ch, ~192.00 kbps avg

MediaInfo

GeneralComplete name : Ангело-почта.aviFormat : AVIFormat/Info : Audio Video InterleaveFile size : 1.63 GiBDuration : 1h 33mnOverall bit rate : 2 484 KbpsWriting application : VirtualDubMod 1.5.10.1 (build 2366/release)Writing library : VirtualDubMod build 2366/release
VideoID : 0Format : MPEG-4 VisualFormat settings, BVOP : 1Format settings, QPel : NoFormat settings, GMC : No warppointsFormat settings, Matrix : Default (H.263)Muxing mode : Packed bitstreamCodec ID : DX50Codec ID/Hint : DivX 5Duration : 1h 33mnBit rate : 2 283 KbpsWidth : 704 pixelsHeight : 576 pixelsDisplay aspect ratio : 4:3Frame rate : 25.000 fpsStandard : PALColor space : YUVChroma subsampling : 4:2:0Bit depth : 8 bitsScan type : ProgressiveCompression mode : LossyBits/(Pixel*Frame) : 0.225Stream size : 1.49 GiB (92%)Writing library : DivX 6.8.3-6.8.4 (UTC 2008-06-07)
AudioID : 1Format : AC-3Format/Info : Audio Coding 3Mode extension : CM (complete main)Codec ID : 2000Duration : 1h 33mnBit rate mode : ConstantBit rate : 192 KbpsChannel(s) : 2 channelsChannel positions : Front: L RSampling rate : 48.0 KHzBit depth : 16 bitsCompression mode : LossyStream size : 129 MiB (8%)Alignment : Aligned on interleavesInterleave, duration : 40 ms (1.00 video frame)Interleave, preload duration : 512 ms

Скриншоты







Ангело-почта [DVD5]
[teatrix.ru].t4512.torrent 
Торрент: Зарегистрирован [ 2015-10-08 00:27 ] · D95C4DC82A2EC564606101258E4177ADDCCD8A4C

Скачать .torrent

Скачать

17 KB

Статус: проверено
Скачан: 0 раз
Размер: 1.63 GB
terms.php



Быстрый ответ

Имя:

      
Для отправки сообщений необходимо включить JavaScript
Показать сообщения:    

Текущее время: 03-Дек 09:48

Часовой пояс: UTC + 3


Вы можете начинать темы
Вы можете отвечать на сообщения
Вы не можете редактировать свои сообщения
Вы не можете удалять свои сообщения
Вы не можете голосовать в опросах
Вы не можете прикреплять файлы к сообщениям
Вы можете скачивать файлы