В темноте / V temnote (Сергей Дворцевой) [2004, Россия, Документальный, VHSRip]


Статистика раздачи [Обновить пиров]
Размер:  698 MB   |    Зарегистрирован:  1 год 2 месяца   |    Скачан:  1 раз

Полного источника не было: 2 дня 4 часа

 
   
 
 
 

[Цитировать]

В темноте / V temnote
Страна: Россия
Жанр: Документальный
Год выпуска: 2004
Продолжительность: 00:40:11
Перевод: Не требуется
Cубтитры: нет
Режиссер: Сергей Дворцевой
В ролях: Иван Николаевич Скоробогатов
Описание: Пенсионер Иван Николаевич Скоробогатов - одинокий слепой старик, он живет тем, что плетет авоськи, которые затем раздает на улице первым встречным просто так, бесплатно. А белая непоседливая кошка, хоть и скрашивает его одиночество, постоянно мешает старику: то бумаги рассыплет, то запутает клубки. Проходят дни, недели и месяцы, а Иван Николаевич все плетет и плетет свои допотопные авоськи, не рассчитывая на благодарность. Если авоськи никто не берет, он горько плачет: и в присутствии киношников, и тем более когда остается один. В конце фильма бездонность его одиночества становится до головокружения осязаемой: словно сочувствуя хозяину, кошка тоже рыдает — да-да, именно рыдает, как человек. Портрет слепого старика, живущего в московской квартире с кошкой, поразил всех как отличная метафора. Сергей Дворцевой, уже имеющий в своем послужном списке более 50 фестивальных наград, еще раз доказал, что умеет находить сюжеты и мастерски разрабатывать их, разрушая привычные границы между документальным и игровым искусством.
Доп. информация: Это VHSrip, сделанный с этой раздачи http://rutracker.org/forum/viewtopic.php?t=2279114. Помимо конвертирования из VOB в AVI я ещё выполнил обрезку чёрных полос по краям видео.
Качество видео:VHSRip
Формат видео: AVI
Видео: 672x400 (1.68:1), 25 fps, XviD MPEG-4 ~2194 kbps avg, 0.33 bit/pixel
Аудио: 48 kHz, Microsoft MPEG, 2 ch, ~224.00 kbps avg
Сэмпл: http://multi-up.com/864694

MediaInfo

General
Complete name : E:\Фильмотека\Дворцевой, Сергей Владимирович\2004 - В темноте.avi
Format : AVI
Format/Info : Audio Video Interleave
File size : 698 MiB
Duration : 40mn 11s
Overall bit rate : 2 429 Kbps
Writing application : VirtualDubMod 1.5.10.2 (build 2540/release)
Writing library : VirtualDubMod build 2540/release
Video
ID : 0
Format : MPEG-4 Visual
Format profile : Advanced Simple@L5
Format settings, BVOP : 2
Format settings, QPel : No
Format settings, GMC : No warppoints
Format settings, Matrix : Default (MPEG)
Codec ID : DIVX
Codec ID/Info : Project Mayo
Codec ID/Hint : DivX 4
Duration : 40mn 11s
Bit rate : 2 195 Kbps
Width : 672 pixels
Height : 400 pixels
Display aspect ratio : 1.680
Frame rate : 25.000 fps
Color space : YUV
Chroma subsampling : 4:2:0
Bit depth : 8 bits
Scan type : Progressive
Compression mode : Lossy
Bits/(Pixel*Frame) : 0.327
Stream size : 631 MiB (90%)
Writing library : XviD 64
Audio
ID : 1
Format : MPEG Audio
Format version : Version 1
Format profile : Layer 2
Codec ID : 50
Duration : 40mn 10s
Bit rate mode : Constant
Bit rate : 224 Kbps
Channel(s) : 2 channels
Sampling rate : 48.0 KHz
Compression mode : Lossy
Stream size : 64.4 MiB (9%)
Alignment : Aligned on interleaves
Interleave, duration : 40 ms (1.00 video frame)
Interleave, preload duration : 504 ms

Скриншоты

[teatrix.ru].t4513.torrent 
Торрент: Зарегистрирован [ 2015-10-08 00:27 ] · 1574FAA83500CCA08921F2177FE2F1F4DA902511

Скачать .torrent

Скачать

14 KB

Статус: проверено
Скачан: 1 раз
Размер: 698 MB
terms.php



Быстрый ответ

Имя:

      
Для отправки сообщений необходимо включить JavaScript
Показать сообщения:    

Текущее время: 11-Дек 03:20

Часовой пояс: UTC + 3


Вы можете начинать темы
Вы можете отвечать на сообщения
Вы не можете редактировать свои сообщения
Вы не можете удалять свои сообщения
Вы не можете голосовать в опросах
Вы не можете прикреплять файлы к сообщениям
Вы можете скачивать файлы