Элегия из России ...этюды для сна / Elegy from Russia ...dreams for sleep (Александр Сокуров / Alexander Sokurov) [1992, Россия, Документальный, TeleSynch] + Original Rus


Статистика раздачи [Обновить пиров]
Размер:  1.22 GB   |    Зарегистрирован:  1 год 2 месяца   |    Скачан:  0 раз

Полного источника не было: Никогда

 
   
 
 
 

[Цитировать]

Элегия из России ...этюды для сна / Elegy from Russia ...dreams for sleep
Страна: Россия
Жанр: Документальный
Год выпуска: 1992
Продолжительность: 01:05:55
Перевод: Не требуется
Cубтитры: нет
Оригинальная аудиодорожка: русский
Режиссер: Александр Сокуров / Alexander Sokurov
В ролях: Б. П. Злыгостев, Д. П. Дюков, Д. А. Черных, Л. В. Мкртчан, К. Т. Котова, семья Далецких
Описание: Документальность и лиризм — полярные составляющие кинематографического языка — равнозначимы и неразделимы в поэтике фильмов российского режиссера Александра Сокурова. И в документальных, и в игровых его лентах объекты реальной жизни, давно или недавно запечатленные на кинопленке, включаются в свободную поэтическую композицию. В своей новой работе А. Сокуров и его коллеги — оператор А. Буров, звукооператор В. Персов — сплетают художественную ткань картины без швов и узлов, словно из одной нити, достигая на своем пути нового итога — итога мировоззренческого.
Качество видео: TeleSynch
Формат видео: AVI
Видео: 720x544 (1.32:1), 25 fps, XviD build 50 ~2536 kbps avg, 0.26 bit/pixel
Аудио: 48 kHz, MPEG Layer 3, 2 ch, ~100.35 kbps avg

MediaInfo

General
Complete name : D:\FilmNew\Элегия из России ...этюды для сна.avi
Format : AVI
Format/Info : Audio Video Interleave
File size : 1.22 GiB
Duration : 1h 5mn
Overall bit rate : 2 651 Kbps
Writing application : VirtualDubMod 1.5.4.1 (build 2178/release)
Writing library : VirtualDubMod build 2178/release
Video
ID : 0
Format : MPEG-4 Visual
Format profile : Advanced Simple@L5
Format settings, BVOP : Yes
Format settings, QPel : No
Format settings, GMC : No warppoints
Format settings, Matrix : Custom
Codec ID : XVID
Codec ID/Hint : XviD
Duration : 1h 5mn
Bit rate : 2 538 Kbps
Width : 720 pixels
Height : 544 pixels
Display aspect ratio : 4:3
Frame rate : 25.000 fps
Resolution : 8 bits
Colorimetry : 4:2:0
Scan type : Progressive
Bits/(Pixel*Frame) : 0.259
Stream size : 1.17 GiB (96%)
Writing library : XviD 1.2.1 (UTC 2008-12-04)
Audio
ID : 1
Format : MPEG Audio
Format version : Version 1
Format profile : Layer 3
Mode : Joint stereo
Format_Settings_ModeExtension : MS Stereo
Codec ID : 55
Codec ID/Hint : MP3
Duration : 1h 5mn
Bit rate mode : Variable
Bit rate : 100 Kbps
Nominal bit rate : 128 Kbps
Channel(s) : 2 channels
Sampling rate : 48.0 KHz
Stream size : 47.3 MiB (4%)
Alignment : Aligned on interleaves
Interleave, duration : 24 ms (0.60 video frame)
Interleave, preload duration : 520 ms
Writing library : LAME3.98r
Encoding settings : -m j -V 4 -q 2 -lowpass 17 --abr 128

Скриншот c названием фильма

Скриншоты

[teatrix.ru].t4514.torrent 
Торрент: Зарегистрирован [ 2015-10-08 00:27 ] · BE1E7BA4AE07159A0F4E93324B040640F98F803D

Скачать .torrent

Скачать

13 KB

Статус: проверено
Скачан: 0 раз
Размер: 1.22 GB
terms.php



Быстрый ответ

Имя:

      
Для отправки сообщений необходимо включить JavaScript
Показать сообщения:    

Текущее время: 10-Дек 23:26

Часовой пояс: UTC + 3


Вы можете начинать темы
Вы можете отвечать на сообщения
Вы не можете редактировать свои сообщения
Вы не можете удалять свои сообщения
Вы не можете голосовать в опросах
Вы не можете прикреплять файлы к сообщениям
Вы можете скачивать файлы