Филипс Радио / Philips Radio (Йорис Ивенс / Joris Ivens) [1931, Нидерланды, Документальный, DVDRip] + Sub Rus


Статистика раздачи [Обновить пиров]
Размер:  444 MB   |    Зарегистрирован:  1 год 1 месяц   |    Скачан:  0 раз

Полного источника не было: Никогда

 
   
 
 
 

[Цитировать]

Филипс Радио / Philips Radio
Страна: Нидерланды
Жанр: Документальный
Год выпуска: 1931
Продолжительность: 00:35:48
Перевод: Субтитры
Cубтитры: Русские (перевод Romansp2004)
Режиссер: Йорис Ивенс / Joris Ivens
В ролях: Рабочие завода Филипс
Описание:Фильм снят по заказу компании "Филипс" и является весьма неоднородным по стилю. С одной стороны великий художник-авангардист Йорис Ивенс включает сцены абстрактного "механического балета" - танец различных деталей, находящихся на конвейере завода. Эти кадры явно подражательные и не выражают подлинного творческого лица режиссера. С другой стороны - в фильме содержатся эпизоды, носящие вполне реалистический характер и отражающие подлинную правду жизни.
Здесь подробно и полно показываются принадлежащие "Филипс" заводы, подчеркивается мощь и механизация производства, современность оборудования. В тоже время, Ивенс не мог не заметить, что человек на этом прекрасно организованном и высокотехнологичном предприятии становится слугой машины. Эта тема нашла свое отражение в кадрах, подчеркивающих заученность, механическое равнодушие движений рабочих.
Качество видео: DVDRip
Формат видео: AVI
Видео: XviD MPEG-4, 624*448 (1,393), 24 кадра/сек, 1630 Кбит/сек.
Аудио: АС-3, 48 КГц, 96 Кбит/сек, 1 канал.

MediaInfo

Общее
Формат : AVI
Формат/Информация : Audio Video Interleave
Размер файла : 444 Мбайт
Продолжительность : 35 м.
Общий поток : 1736 Кбит/сек
Программа кодирования : VirtualDubMod 1.5.10.2 (build 2540/release)
Библиотека кодирования : VirtualDubMod build 2540/release
Видео
Идентификатор : 0
Формат : MPEG-4 Visual
Профиль формата : Advanced Simple@L5
Параметр BVOP формата : 2
Параметр QPel формата : Нет
Параметр GMC формата : Без точки перехода
Параметр матрицы формата : Default (MPEG)
Идентификатор кодека : XVID
Идентификатор кодека/Подсказка : XviD
Продолжительность : 35 м.
Битрейт : 1630 Кбит/сек
Ширина : 624 пикселя
Высота : 448 пикселей
Соотношение сторон : 1,393
Частота кадров : 23,976 кадра/сек
Цветовое пространство : YUV
Субдискретизация насыщенности : 4:2:0
Битовая глубина : 8 бит
Тип развёртки : Прогрессивная
Метод сжатия : С потерями
Бит/(Пиксели*Кадры) : 0.243
Размер потока : 417 Мбайт (94%)
Библиотека кодирования : XviD 1.2.1 (UTC 2008-12-04)
Аудио
Идентификатор : 1
Формат : AC-3
Формат/Информация : Audio Coding 3
Расширение режима : CM (complete main)
Параметр Endianness формата : Big
Идентификатор кодека : 2000
Продолжительность : 35 м.
Вид битрейта : Постоянный
Битрейт : 96,0 Кбит/сек
Каналы : 1 канал
Расположение каналов : Front: C
Частота : 48,0 КГц
Битовая глубина : 16 бит
Метод сжатия : С потерями
Размер потока : 24,6 Мбайт (6%)
Выравнивание : Разделение по промежуткам
Продолжительность промежутка : 42 мс. (1,00 видеокадр)
Время предзагрузки промежутка : 500 мс.

Скриншот c названием фильма

Скриншоты





Субтитры

1
00:00:17,250 --> 00:00:19,662
А сейчас фильм компании Филипс
2
00:00:23,787 --> 00:00:27,787
Перевод: Romansp2004
3
00:01:31,424 --> 00:01:33,165
Выдув ламп
4
00:03:08,321 --> 00:03:10,358
Выдув механическим способом
5
00:03:31,477 --> 00:03:36,893
- Алло? Алло? Машина 2Б, 500 единиц
6
00:05:41,574 --> 00:05:44,020
Изготовление радиоламп
7
00:08:53,232 --> 00:08:54,768
Проверка радиоламп
8
00:09:35,274 --> 00:09:39,450
Выдув трубок для изготовления радиоламп
9
00:12:56,942 --> 00:12:58,751
Сортировка
10
00:13:55,601 --> 00:13:58,980
Процесс обработки ламп
11
00:17:20,039 --> 00:17:23,919
Ретранслятор PHOHI - 30 Квт,
длина волны - 16,88 м.
12
00:17:25,044 --> 00:17:32,044
PHOHI - радиовещание Филипс Голландской Ост-Индии
(Philips broadcasting Holland Indies)
13
00:18:24,036 --> 00:18:32,036
С уважением... (на английском, французском,
голландском, итальянском, немецком языках)
14
00:18:37,082 --> 00:18:39,392
Лаборатория
15
00:21:58,216 --> 00:22:00,560
Сборка радиоприёмников
16
00:23:46,992 --> 00:23:48,938
Контроль качества №1
17
00:24:06,211 --> 00:24:08,521
Контроль качества №2
18
00:24:38,877 --> 00:24:40,823
Проверка
19
00:25:51,049 --> 00:25:54,053
Монтаж динамиков
20
00:25:59,357 --> 00:26:00,768
Прессы Philite
21
00:32:06,457 --> 00:32:08,698
Проверка динамиков
22
00:35:42,573 --> 00:35:43,415
Конец
Мои переводы Иранское кино
[teatrix.ru].t4516.torrent 
Торрент: Зарегистрирован [ 2015-10-08 00:27 ] · F91E2D7853478B7116B34C543F510549612EEB9F

Скачать .torrent

Скачать

18 KB

Статус: проверено
Скачан: 0 раз
Размер: 444 MB
terms.php



Быстрый ответ

Имя:

      
Для отправки сообщений необходимо включить JavaScript
Показать сообщения:    

Текущее время: 07-Дек 11:31

Часовой пояс: UTC + 3


Вы можете начинать темы
Вы можете отвечать на сообщения
Вы не можете редактировать свои сообщения
Вы не можете удалять свои сообщения
Вы не можете голосовать в опросах
Вы не можете прикреплять файлы к сообщениям
Вы можете скачивать файлы