Душа и тело: Филипп Поццо ди Борго и Александр Жольен / De chair et d\'ame, Philippe Pozzo di Borgo et Alexandre Jollien (Рафаэль Эллиг Ренье / Raphaelle Aellig Regnier) [2012, Швейцария, Франция, документальный, экзистенциализм, DVB] Sub (rus)


Статистика раздачи [Обновить пиров]
Размер:  933 MB   |    Зарегистрирован:  1 год 2 месяца   |    Скачан:  0 раз

Полного источника не было: Никогда

 
   
 
 
 

[Цитировать]

Душа и тело: Филипп Поццо ди Борго и Александр Жольен
De chair et d'âme, Philippe Pozzo di Borgo et Alexandre Jollien- Страна: Швейцария, Франция
Жанр: документальный, экзистенциализм
Год выпуска: 2012
Продолжительность: 00:54:10
Перевод: Субтитры (перевод И. Рыбкиной, Éclair Group)
Cубтитры: русские
Оригинальная аудиодорожка: французский
Режиссер: Рафаэль Эллиг Ренье / Raphaëlle Aellig Régnier
В ролях: Филипп Поццо ди Борго / Philippe Pozzo di Borgo, Александр Жольен / Alexandre Jollien
Описание: Вам предлагается уникальная встреча с двумя выдающимися личностями: швейцарским писателем и философом Александром Жольеном и бывшим парапланеристом Филиппом Поццо ди Борго, чья жизненная трагедия легла в основу сенсационного фильма "Неприкасаемые / 1+1 / Intouchables" (2011).
Александр Жольен с самого рождения страдает атетозом, заболеванием, характеризующимся непроизвольными движениями тела. Сын аристократов Филипп Поццо ди Борго был удачливым французским бизнесменом и известным парапланеристом, но после несчастного случая, случившегося с ним в 1993 году, когда ему было 42 года, он остался полностью парализованным.
Эти двое мужчин имеют мировую известность, один – за его философские труды и эссе, например, книгу "Похвала слабости" (2009), второй – после невероятного успеха фильма "Неприкасаемые", поставленного по его автобиографии "Второй шанс" (2001). Но большее признание и уважение к этим двум неординарным личностям пришло благодаря их упорству и страсти к жизни.
В предлагаемом вам фильме идет откровенный разговор о смысле жизни, судьбе и понимании мира.
Доп. информация: Запись со спутника (канал TV5MONDE).
Сэмпл: http://multi-up.com/861625
Качество видео: DVB
Формат видео: MPEG-PS
Видео: MPEG Video 2, 720x576@1024x576 (16:9), 25 fps, ~2165 kbps avg, 0.209 bit/pixel
Аудио: Французский (48 kHz, MPEG Audio 2, 2 ch, ~192.00 kbps avg)
Формат субтитров: hardsub (неотключаемые)

MediaInfo

Полное имя : H:\My Torrents\[apreder]De_chair_et_d'ame(2012)DVB.mpgФормат : MPEG-PSРазмер файла : 933 МбайтПродолжительность : 54 м.Режим общего битрейта : ПеременныйОбщий поток : 2405 Кбит/сек
ВидеоИдентификатор : 224 (0xE0)Формат : MPEG VideoВерсия формата : Version 2Профиль формата : Main@MainПараметр BVOP формата : ДаПараметр матрицы формата : ВыборочнаяПараметр GOP формата : M=3, N=24Продолжительность : 54 м.Вид битрейта : ПеременныйБитрейт : 2165 Кбит/секШирина : 720 пикселейВысота : 576 пикселейСоотношение сторон : 16:9Частота кадров : 25,000 кадров/секСтандарт вещания : PALЦветовое пространство : YUVСубдискретизация насыщенности : 4:2:0Битовая глубина : 8 битТип развёртки : ПрогрессивнаяПорядок развёртки : Верхнее поле первоеМетод сжатия : С потерямиБит/(Пиксели*Кадры) : 0.209TimeCode_FirstFrame : 00:00:00:00TimeCode_Source : Group of pictures headerРазмер потока : 840 Мбайт (90%)
АудиоИдентификатор : 192 (0xC0)Формат : MPEG AudioВерсия формата : Version 1Профиль формата : Layer 2Продолжительность : 54 м.Вид битрейта : ПостоянныйБитрейт : 192 Кбит/секКаналы : 2 каналаЧастота : 48,0 КГцМетод сжатия : С потерямиРазмер потока : 74,5 Мбайт (8%)

Скриншот c названием фильма

Скриншоты


Скриншоты анаморфированные


-720/702√
[teatrix.ru].t4517.torrent 
Торрент: Зарегистрирован [ 2015-10-08 00:27 ] · 0DD83783777198BE8C51EAFEC2668676448072DC

Скачать .torrent

Скачать

19 KB

Статус: проверено
Скачан: 0 раз
Размер: 933 MB
terms.php



Быстрый ответ

Имя:

      
Для отправки сообщений необходимо включить JavaScript
Показать сообщения:    

Текущее время: 08-Дек 21:07

Часовой пояс: UTC + 3


Вы можете начинать темы
Вы можете отвечать на сообщения
Вы не можете редактировать свои сообщения
Вы не можете удалять свои сообщения
Вы не можете голосовать в опросах
Вы не можете прикреплять файлы к сообщениям
Вы можете скачивать файлы