Просто жизнь / Just a life (Марина Разбежкина) [2002, Россия, документальное кино, TVRip] + Original Rus


Статистика раздачи [Обновить пиров]
Размер:  453 MB   |    Зарегистрирован:  1 год 1 месяц   |    Скачан:  0 раз

Полного источника не было: Никогда

 
   
 
 
 

[Цитировать]

Просто жизнь / Just a life
Страна: Россия
Жанр: документальное кино
Год выпуска: 2002
Продолжительность: 0:20:18
Перевод: Не требуется
Cубтитры: нет
Оригинальная аудиодорожка: русский
Режиссер: Марина Разбежкина
В ролях: Шура Алексеева
Описание: Шурочка, женщина лет под 50, всю жизнь ходит из одной деревни в другую взвешивать тракторы. Пристально наблюдая за ее насекомым существованием, Разбежкина обнаруживает в Шурочке нечто от кинодивы 1930-х годов. Ее героиня пританцовывает под Утесова, улыбается фотографиям старых советских актрис и в одинокой провинциальной безбытности обнаруживает удивительный вкус к жизни.
Доп. информация: Оператор: Ирина Уральская. Звукооператор: Владимир Зорин. Композитор: Антон Силаев. Монтаж Татьяна Найденова. В фильме звучит танго Оскара Строка "Брызги шампанского"
Сэмпл: http://yadi.sk/d/6bu0rQkv4NN2Q
Качество видео: TVRip
Формат видео: AVI
Видео: DivX 6, 688x576, 4:3, 25fps, 2914 Kbps
Аудио: MPEG Audio, 48000Hz, 192kbps, stereo

MediaInfo

General
Format : AVI
Format/Info : Audio Video Interleave
File size : 453 MiB
Duration : 20mn 17s
Overall bit rate : 3 121 Kbps
Video
ID : 0
Format : MPEG-4 Visual
Format profile : Advanced Simple@L4
Format settings, BVOP : 2
Format settings, QPel : No
Format settings, GMC : No warppoints
Format settings, Matrix : Default (H.263)
Codec ID : DIVX
Codec ID/Info : Project Mayo
Codec ID/Hint : DivX 4
Duration : 20mn 17s
Bit rate : 2 914 Kbps
Width : 688 pixels
Height : 576 pixels
Display aspect ratio : 1.194
Frame rate : 25.000 fps
Color space : YUV
Chroma subsampling : 4:2:0
Bit depth : 8 bits
Scan type : Progressive
Compression mode : Lossy
Bits/(Pixel*Frame) : 0.294
Stream size : 423 MiB (93%)
Writing library : XviD 64
Audio
ID : 1
Format : MPEG Audio
Format version : Version 1
Format profile : Layer 2
Codec ID : 50
Duration : 20mn 17s
Source duration : 20mn 17s
Bit rate mode : Constant
Bit rate : 192 Kbps
Channel(s) : 2 channels
Sampling rate : 48.0 KHz
Compression mode : Lossy
Stream size : 27.9 MiB (6%)
Alignment : Aligned on interleaves
Interleave, duration : 24 ms (0.60 video frame)

Скриншот c названием фильма

Скриншоты

[url=http://rutracker.org/forum/tracker.php?rid=2592157]∙∙∙∙∙·▫▫ᵒᴼᵒ▫ₒₒ▫ᵒᴼᵒ▫ₒₒ▫ᵒᴼᵒ☼)===>M0u ToppeHTbI
[teatrix.ru].t4519.torrent 
Торрент: Зарегистрирован [ 2015-10-08 00:27 ] · 66B58B37F19A849D1996EE42F8692F5A218830F2

Скачать .torrent

Скачать

18 KB

Статус: проверено
Скачан: 0 раз
Размер: 453 MB
terms.php



Быстрый ответ

Имя:

      
Для отправки сообщений необходимо включить JavaScript
Показать сообщения:    

Текущее время: 06-Дек 20:56

Часовой пояс: UTC + 3


Вы можете начинать темы
Вы можете отвечать на сообщения
Вы не можете редактировать свои сообщения
Вы не можете удалять свои сообщения
Вы не можете голосовать в опросах
Вы не можете прикреплять файлы к сообщениям
Вы можете скачивать файлы