Картины с выставки / Bilder Einer Ausstellung (Ульрих Зайдль / Ulrich Seidl) [1996, Австрия, документальный, VHSRip] (Vargnatt) + Sub Rus


Статистика раздачи [Обновить пиров]
Размер:  352 MB   |    Зарегистрирован:  1 год 1 месяц   |    Скачан:  0 раз

Полного источника не было: 1 месяц 1 день

 
   
 
 
 

[Цитировать]

Картины с выставки / Bilder Einer Ausstellung
Страна: Австрия
Жанр: документальный
Год выпуска: 1996
Продолжительность: 00:46:44
Перевод: Субтитры Vargnatt
Cубтитры: русские
Оригинальная аудиодорожка: немецкий
Режиссер: Ульрих Зайдль / Ulrich Seidl
В ролях: Erich Finsches, Marie Kern, M.C. Kreindl, Hubert Fabian Kulterer, Barbara Paukner, Peter Reiser, Rene Rupnik
Описание: Картина, человек, и его мысли, возникающие при созерцании произведений искусства.
Качество видео: VHSRip
Формат видео: AVI
Видео: Xvid 720x572 25fps 880 Кбит/сек
Аудио: MP3 48000Hz stereo 160kbps
Формат субтитров: softsub (SRT)

Скриншоты

Пример перевода

100
00:12:29,603 --> 00:12:39,791
Потому что геометрия и правильные формы,
уходят в распоряжение моего воображения.
101
00:12:39,791 --> 00:12:48,413
Я свободен в своих интерпретациях, фантазиях,
102
00:12:48,413 --> 00:12:57,943
и я даю волю своему геометрическому мировоззрению.
103
00:13:00,130 --> 00:13:06,610
Зелёный цвет сочен, но понять
что-либо очень затруднительно.
104
00:13:06,610 --> 00:13:17,986
Слева, находится голова на длинной
шее с длинными волосами.
105
00:13:17,986 --> 00:13:25,299
Но что же он пытался сказать
этими флагами со свастиками?
106
00:13:25,299 --> 00:13:33,569
Возможно, он живёт в прошлом, и
находится под дурным влиянием нацистов,
107
00:13:33,569 --> 00:13:38,404
а может быть, он до сих пор восхваляет
нацистскую идеологию.
108
00:13:38,404 --> 00:13:45,338
Или он такого натерпелся в те времена,
что до сих пор забыть не может.
109
00:13:45,338 --> 00:13:51,205
В любом случае, раз он пишет подобное,
значит с головой у него не всё в порядке.
110
00:13:53,143 --> 00:13:59,973
Вот то скопление пенисов слева,
111
00:13:59,973 --> 00:14:13,073
угрожающе нависает над
композицией вагин в центре,
112
00:14:13,073 --> 00:14:14,873
затем оно проникает в них.
113
00:14:14,873 --> 00:14:22,817
Эта картина рассказывает о власти,
о вторжении мужского в женское.
114
00:14:22,817 --> 00:14:27,960
Власть отца в семье, к примеру.
115
00:14:27,960 --> 00:14:35,364
Дитя, расположенное справа,
в позе эмбриона - изолировано.
116
00:14:35,364 --> 00:14:43,047
Оно наблюдает за тем, как отец окружает
и сексуально сокрушает его мать.
117
00:14:43,047 --> 00:14:51,691
Возможно, глядя на то, как его отец
проникает и движется
118
00:14:51,691 --> 00:15:01,202
в его матери, у ребёнка
разовьётся Эдипов комплекс.
119
00:15:02,825 --> 00:15:07,306
Я вижу яркую фигуру, жёлтое, голубоглазое нечто.
120
00:15:07,306 --> 00:15:12,381
Она напомнила мне Африку, племена Масаи.

отчёт медиаинфо

Формат : AVI
Формат/Информация : Audio Video Interleave
Размер файла : 352 Мбайт
Продолжительность : 46 м.
Общий поток : 1053 Кбит/сек
Видео
Идентификатор : 0
Формат : MPEG-4 Visual
Профиль формата : Simple@L3
Параметр BVOP формата : Нет
Параметр QPel формата : Нет
Параметр GMC формата : Без точки перехода
Параметр матрицы формата : Default (H.263)
Идентификатор кодека : XVID
Идентификатор кодека/Подсказка : XviD
Продолжительность : 46 м.
Продолжительность оригинала : 46 м.
Битрейт : 880 Кбит/сек
Ширина : 720 пикселей
Высота : 572 пикселя
Соотношение сторон : 4:3
Частота кадров : 25,000 кадров/сек
Цветовое пространство : YUV
Субдискретизация насыщенности : 4:2:0
Битовая глубина : 8 бит
Тип развёртки : Прогрессивная
Метод сжатия : С потерями
Бит/(Пиксели*Кадры) : 0.085
Размер потока : 294 Мбайт (84%)
Библиотека кодирования : XviD 1.1.2 (UTC 2006-11-01)
Аудио
Идентификатор : 1
Формат : MPEG Audio
Версия формата : Version 1
Профиль формата : Layer 3
Режим : Joint stereo
Идентификатор кодека : 55
Идентификатор кодека/Подсказка : MP3
Продолжительность : 46 м.
Вид битрейта : Постоянный
Битрейт : 160 Кбит/сек
Каналы : 2 канала
Частота : 48,0 КГц
Метод сжатия : С потерями
Задержка видео : 24 мс.
Размер потока : 53,5 Мбайт (15%)
Выравнивание : Разделение по промежуткам
Продолжительность промежутка : 24 мс. (0,60 видеокадр)
Библиотека кодирования : LAME3.96.1
[teatrix.ru].t4526.torrent 
Торрент: Зарегистрирован [ 2015-10-08 00:27 ] · 45FE050310393FE7BFC7A39513B6460BA9839A80

Скачать .torrent

Скачать

14 KB

Статус: проверено
Скачан: 0 раз
Размер: 352 MB
terms.php



Быстрый ответ

Имя:

      
Для отправки сообщений необходимо включить JavaScript
Показать сообщения:    

Текущее время: 04-Дек 23:24

Часовой пояс: UTC + 3


Вы можете начинать темы
Вы можете отвечать на сообщения
Вы не можете редактировать свои сообщения
Вы не можете удалять свои сообщения
Вы не можете голосовать в опросах
Вы не можете прикреплять файлы к сообщениям
Вы можете скачивать файлы