Изгоняя демонов. Фильм о художнике Атиле Ричарде Лукасе / Drawing Out the Demons: A Film About the Artist Attila Richard Lukacs (David Vaisbord / Дэвид Вайсборд) [2004, Канада, документальный, андеграунд, гей-тема, DVB] DVO (Селена Интернешнл)


Статистика раздачи [Обновить пиров]
Размер:  1.43 GB   |    Зарегистрирован:  1 год 2 месяца   |    Скачан:  0 раз

Полного источника не было: Никогда

 
   
 
 
 

[Цитировать]

Изгоняя демонов. Фильм о художнике Атиле Ричарде Лукасе [полная версия]
Drawing Out the Demons: A Film About the Artist Attila Richard Lukacs- Страна: Канада
Жанр: документальный, андеграунд, гей-тема
Год выпуска: 2004
Продолжительность: 01:19:00
Перевод: Профессиональный (двухголосый закадровый) (компания "Селена Интернешнл" по заказу канала "24ДОК")
Cубтитры: нет
Оригинальная аудиодорожка: нет
Режиссер: David Vaisbord / Дэвид Вайсборд
В ролях: Атила Ричард Лукас / Attila Richard Lukacs
Описание: Аттила Ричард Лукас / Attila Richard Lukacs родился в 1962 году в Канаде. В1985 г. он окончил Emily Carr Institute of Art and Design в Ванкувере и на следующий год перебрался в Берлин. После 10 лет работы в Берлине он уехал в Нью-Йорк, где эпатировал зрителей портретами скинхедов и гомосексуалистов из военной серии True North. Одной из моделей Лукаса был эмигрировавший в США скандально известный журналист Ярослав Могутин. В 2001 г. художник уехал жить на Гавайи и создал чувственные утонченные серии картин цветов Flowers и деревьев Arbor Vitae. В 2003 г. по возвращении в Нью-Йорк Лукас возвращается к теме брутальной гомосексуальности, создав серию Of Monkeys and Men. Сейчас Атила Ричард Лукас живет в Ванкувере. Несколько его работ находятся в коллекции Элтона Джона.
Доп. информация: запись со спутника (канал "24ДОК"). Во время французской речи на экране английские вшитые субтитры. Фильм существует в 2-х версиях: цензурированная 48-минутная и полная 78-минутная. В раздаче - полная версия фильма. На территории РФ возрастное ограничение 18+.
Награды: 2 номинации Gemini Awards 2005 (лучший режиссер-документалист, лучший документальный фильм об искусстве); 5 номинаций Leo Awards 2005 (лучший документальный фильм об искусстве; лучшая музыка, звук, монтаж звука, монтаж фильма).
Информация: http://www.imdb.com/title/tt0422134/
Сэмпл: http://multi-up.com/834155
Качество видео: DVB
Формат видео: MPEG-PS
Видео: MPEG Video 2, 720x576@768x576 (4:3), 25 fps, ~2351 kbps avg, 0.227 bit/pixel
Аудио: 48 kHz, MPEG Audio 2, 2 ch, ~192.00 kbps avg

MediaInfo

Полное имя : H:\My Torrents\[apreder]Drawing_Out_the_Demons(2004)DVB.mpgФормат : MPEG-PSРазмер файла : 1,43 ГбайтПродолжительность : 1 ч. 18 м.Режим общего битрейта : ПеременныйОбщий поток : 2594 Кбит/сек
ВидеоИдентификатор : 224 (0xE0)Формат : MPEG VideoВерсия формата : Version 2Профиль формата : Main@MainПараметр BVOP формата : ДаПараметр матрицы формата : ВыборочнаяПараметр GOP формата : M=3, N=36Продолжительность : 1 ч. 18 м.Вид битрейта : ПеременныйБитрейт : 2351 Кбит/секШирина : 720 пикселейВысота : 576 пикселейСоотношение сторон : 4:3Частота кадров : 25,000 кадров/секСтандарт вещания : PALЦветовое пространство : YUVСубдискретизация насыщенности : 4:2:0Битовая глубина : 8 битТип развёртки : ЧересстрочнаяПорядок развёртки : Верхнее поле первоеМетод сжатия : С потерямиБит/(Пиксели*Кадры) : 0.227Размер потока : 1,30 Гбайт (91%)
АудиоИдентификатор : 192 (0xC0)Формат : MPEG AudioВерсия формата : Version 1Профиль формата : Layer 2Продолжительность : 1 ч. 18 м.Вид битрейта : ПостоянныйБитрейт : 192 Кбит/секКаналы : 2 каналаЧастота : 48,0 КГцМетод сжатия : С потерямиЗадержка видео : -96 мс.Размер потока : 108 Мбайт (7%)

Скриншот c названием фильма

Скриншоты


Скриншоты анаморфированные


-624/606√
[teatrix.ru].t4532.torrent 
Торрент: Зарегистрирован [ 2015-10-08 00:27 ] · 7CC4E80FE72F71362971F357A7A8B07A5970C7B8

Скачать .torrent

Скачать

15 KB

Статус: проверено
Скачан: 0 раз
Размер: 1.43 GB
terms.php



Быстрый ответ

Имя:

      
Для отправки сообщений необходимо включить JavaScript
Показать сообщения:    

Текущее время: 11-Дек 03:21

Часовой пояс: UTC + 3


Вы можете начинать темы
Вы можете отвечать на сообщения
Вы не можете редактировать свои сообщения
Вы не можете удалять свои сообщения
Вы не можете голосовать в опросах
Вы не можете прикреплять файлы к сообщениям
Вы можете скачивать файлы