Потерянные дети Будды / Buddha\'s Lost Children (Марк Веркерк / Mark Verkerk) [2006, Документальный, DVB]


Статистика раздачи [Обновить пиров]
Размер:  4.98 GB   |    Зарегистрирован:  1 год 1 месяц   |    Скачан:  0 раз

Полного источника не было: Никогда

 
   
 
 
 

[Цитировать]

ПОТЕРЯННЫЕ ДЕТИ БУДДЫ / BUDDHA'S LOST CHILDREN
Захватывающаяе подлинная история сострадания и трудной любви
Год выпуска: 2006
Страна: Нидерланды, Франция
Жанр: Документальный
Продолжительность: 01:37:42
Перевод: Студийный (одноголосый закадровый)
Русские субтитры: нет
Субтитры: английские (вшитые)
Режиссер: Марк Веркерк / Mark Verkerk-Описание:
Золотой Треугольник находится на стыке трех границ: Бирмы, Таиланда и Лаоса. Этот регион долгие годы имел печальную славу центра производства и торговли опиумом, и ситуацию в нем контролировали не правительства, а наркобароны. Благодаря усилиям властей и международных организаций ситуация постепенно нормализуется, но многолетнее засилье опиума привело к тому, что обитающие здесь горные народности оказались в нищете и изоляции. Именно здесь, в Золотом Треугольнике, находится Монастырь Золотой Лошади - резиденция одного из последних странствующих монахов, Его Святейшества Кру Ба Ныа Чай Коситто. Последние 15 лет Кру Ба посвящает себя заботе о местных жителях, и в особенности об осиротевших и брошенных детях. Снимавшийся в течение года фильм Марка Веркерка рассказывает о трудной и опасной работе Кру Ба в этом до сих пор неспокойном регионе.-Сэмпл: http://multi-up.com/829334
Качество: DVB
Формат: TS
Видео: MPEG2, 720x480, VBR, 16:9, 6546 Kbps, 23.976 fps, NTSC
Аудио 1: Русский, AC3, 2 ch, 48 kHz, 192 kbps
Аудио 2: Thai, AC3, 2 ch, 48 kHz, 192 kbps

MediaInfo

General
ID : 1 (0x1)
Complete name : Потерянные_дети_Будды_2006_Mpeg2\Потерянные_дети_Будды_2006_Mpeg2.ts
Format : MPEG-TS
File size : 4.98 GiB
Duration : 1h 37mn
Overall bit rate mode : Variable
Overall bit rate : 7 294 Kbps
Maximum Overall bit rate : 35.5 Mbps
Video
ID : 4113 (0x1011)
Menu ID : 1 (0x1)
Format : MPEG Video
Format version : Version 2
Format profile : Main@Main
Format settings, BVOP : Yes
Format settings, Matrix : Custom
Format settings, GOP : M=3, N=12
Codec ID : 2
Duration : 1h 37mn
Bit rate mode : Variable
Bit rate : 6 546 Kbps
Maximum bit rate : 8 000 Kbps
Width : 720 pixels
Height : 480 pixels
Display aspect ratio : 16:9
Frame rate : 23.976 fps
Standard : NTSC
Color space : YUV
Chroma subsampling : 4:2:0
Bit depth : 8 bits
Scan type : Progressive
Scan order : 2:3 Pulldown
Compression mode : Lossy
Bits/(Pixel*Frame) : 0.790
Stream size : 4.47 GiB (90%)
Color primaries : BT.601 NTSC
Transfer characteristics : BT.601
Matrix coefficients : BT.601
Audio #1
ID : 4352 (0x1100)
Menu ID : 1 (0x1)
Format : AC-3
Format/Info : Audio Coding 3
Mode extension : CM (complete main)
Format settings, Endianness : Big
Codec ID : 129
Duration : 1h 37mn
Bit rate mode : Constant
Bit rate : 192 Kbps
Channel(s) : 2 channels
Channel positions : Front: L R
Sampling rate : 48.0 KHz
Bit depth : 16 bits
Compression mode : Lossy
Stream size : 134 MiB (3%)
Language : Russian
Audio #2
ID : 4353 (0x1101)
Menu ID : 1 (0x1)
Format : AC-3
Format/Info : Audio Coding 3
Mode extension : CM (complete main)
Format settings, Endianness : Big
Codec ID : 129
Duration : 1h 37mn
Bit rate mode : Constant
Bit rate : 192 Kbps
Channel(s) : 2 channels
Channel positions : Front: L R
Sampling rate : 48.0 KHz
Bit depth : 16 bits
Compression mode : Lossy
Stream size : 134 MiB (3%)
Language : Thai
[teatrix.ru].t4536.torrent 
Торрент: Зарегистрирован [ 2015-10-08 00:27 ] · A48C03F8E2F3EAEEC6002DF566EAB7DC6AF66F88

Скачать .torrent

Скачать

13 KB

Статус: проверено
Скачан: 0 раз
Размер: 4.98 GB
terms.php



Быстрый ответ

Имя:

      
Для отправки сообщений необходимо включить JavaScript
Показать сообщения:    

Текущее время: 04-Дек 21:16

Часовой пояс: UTC + 3


Вы можете начинать темы
Вы можете отвечать на сообщения
Вы не можете редактировать свои сообщения
Вы не можете удалять свои сообщения
Вы не можете голосовать в опросах
Вы не можете прикреплять файлы к сообщениям
Вы можете скачивать файлы