Весной (Михаил Кауфман) [1929, документальный, кинозарисовка, авангард, DVD5][Немое кино] интертитры (Ukr) + sub (Rus, Eng, Fra, Deu, Esp)


Статистика раздачи [Обновить пиров]
Размер:  2.16 GB   |    Зарегистрирован:  1 год 2 месяца   |    Скачан:  1 раз

Полного источника не было: 1 день 5 часов

 
   
 
 
 

[Цитировать]

Весной
Жанр: документальный, кинозарисовка, авангард
Год выпуска: 1929
Продолжительность: 00:54:18
Режиссёр: Михаил Кауфман
Интертитры: украинские
Субтитры: Русский, English, Français, Deutsch, Español
Описание: Шедевр украинского киноавангарда, неигровой фильм, созданный Михаилом Кауфманом, братом и соавтором Дзиги Вертова, в соответствии с авангардистской теорией киноглаза. В нём показан сейчас почти неизвестный Киев 1929 года. Кадры пробуждения города, возобновления его жизни перекликаются с лиричными картинами возрождения природы. Внимательная камера Кауфмана надолго останавливается на улыбающихся лицах детей, рисуя лиричную картину признания в любви Киеву. В фильме "Весной" Кауфман впервые использовал принцип "скрытой камеры". Саундтрек к фильму создал современный композитор Александр Кохановский - автор музыки к ряду экспериментальных театральных постановок, кинофильмов, перфомансов и художественных акций.
Доп. информация: Издание из DVD-коллекции "КОЛО ДЗИҐИ" Национального центра А. Довженко. "КОЛО ДЗИҐИ" - коллекция лучших украинских немых фильмов - шедевров мировой киноклассики, отреставрированных к 90-летию ВУФКУ в 2011-2012 гг. К фильмам серии современными украинскими, российскими, польскими, немецкими, британскими музыкантами, работающими в жанрах электронной, джазовой, экспериментальной музыки, были созданы новые саундтреки. "КОЛО ДЗИҐИ" - DVD-сборник раритетного кино, способного радикально изменить устоявшиеся представления об украинском кинематографе.
Семпл: https://yadi.sk/i/YKvLYDlRg53r6 (при просмотре низкое кач-во, качайте)
Качество видео: DVD5
Формат видео: DVD Video
Видео: PAL 4:3 (720x576), 3905 Kbps, 25 fps, VBR
Аудио : PCM, 1536 Kbps, 2 channels, 48.0 KHz, Constant

MediaInfo

General
Complete name : C:\Users\Adm\Desktop\Навесні\VIDEO_TS\VTS_03_1.VOB
Format : MPEG-PS
File size : 1 000 MiB
Duration : 24mn 40s
Overall bit rate : 5 666 Kbps
Video
ID : 224 (0xE0)
Format : MPEG Video
Format version : Version 2
Format profile : Main@Main
Format settings, BVOP : Yes
Format settings, Matrix : Default
Duration : 24mn 40s
Bit rate mode : Variable
Bit rate : 3 905 Kbps
Nominal bit rate : 8 000 Kbps
Width : 720 pixels
Height : 576 pixels
Display aspect ratio : 4:3
Frame rate : 25.000 fps
Standard : PAL
Resolution : 8 bits
Colorimetry : 4:2:0
Scan type : Progressive
Bits/(Pixel*Frame) : 0.377
Stream size : 689 MiB (69%)
Audio
ID : 160 (0xA0)
Format : PCM
Format settings, Endianness : Big
Format settings, Sign : Signed
Muxing mode : DVD-Video
Duration : 24mn 39s
Bit rate mode : Constant
Bit rate : 1 536 Kbps
Channel(s) : 2 channels
Channel positions : Front: L R
Sampling rate : 48.0 KHz
Resolution : 16 bits
Stream size : 271 MiB (27%)
Text #1
ID : 32 (0x20)
Format : RLE
Format/Info : Run-length encoding
Text #2
ID : 33 (0x21)
Format : RLE
Format/Info : Run-length encoding
Text #3
ID : 34 (0x22)
Format : RLE
Format/Info : Run-length encoding
Text #4
ID : 35 (0x23)
Format : RLE
Format/Info : Run-length encoding
Text #5
ID : 36 (0x24)
Format : RLE
Format/Info : Run-length encoding

Скриншоты


Скриншоты меню

DVDInfo

Title: Навесні
Size: 2.16 Gb ( 2 267 014,00 KBytes ) - DVD-5
Enabled regions: 1, 2, 3, 4, 5, 6, 7, 8
VTS_01 :
Play Length: 00:00:05
Video: PAL 4:3 (720x576) VBR
Audio:
Not specified (LinearPCM, 2 ch)
VTS_02 :
Play Length: 00:00:24
Video: PAL 4:3 (720x576) VBR
Audio:
Not specified (LinearPCM, 2 ch)
VTS_03 :
Play Length: 00:54:18
Video: PAL 4:3 (720x576) VBR
Audio:
Not specified (LinearPCM, 2 ch)
Not specified (LinearPCM, 2 ch)
Subtitles:
English
Francais
Deutsch
Russian
Espanol
* Menus Information *
VIDEO_TS Menu
Video:
PAL 4:3 (720x576) VBR
Audio:
Not specified (LinearPCM, 2 ch)
English Language Unit :
Title Menu
VTS_01 Menu
Video:
PAL 4:3 (720x576) VBR
Audio:
Not specified (LinearPCM, 2 ch)
English Language Unit :
Root Menu
Chapter (PTT) Menu
VTS_02 Menu
Video:
NTSC 4:3 (720x480) VBR
Auto Pan&Scan, Auto Letterboxed
English Language Unit :
Root Menu
Chapter (PTT) Menu
VTS_03 Menu
Video:
NTSC 4:3 (720x480) VBR
Auto Pan&Scan, Auto Letterboxed
English Language Unit :
Root Menu
Chapter (PTT) Menu
[teatrix.ru].t4538.torrent 
Торрент: Зарегистрирован [ 2015-10-08 00:27 ] · DE8A3664702098E88AF5A3EA6B35A2A158C0A9B0

Скачать .torrent

Скачать

12 KB

Статус: проверено
Скачан: 1 раз
Размер: 2.16 GB
terms.php



Быстрый ответ

Имя:

      
Для отправки сообщений необходимо включить JavaScript
Показать сообщения:    

Текущее время: 10-Дек 00:18

Часовой пояс: UTC + 3


Вы можете начинать темы
Вы можете отвечать на сообщения
Вы не можете редактировать свои сообщения
Вы не можете удалять свои сообщения
Вы не можете голосовать в опросах
Вы не можете прикреплять файлы к сообщениям
Вы можете скачивать файлы