Мауриц Эшер. Закончить незаконченное / Достижение недостижимого / Maurits Escher. Achever l'inachevable / Achieving the Unachievable (Жан Бержерон / Jean Bergeron) [2007, Канада, авангард, история искусств, DVB] Original (Fre) + Sub (rus hard)


Статистика раздачи [Обновить пиров]
Размер:  1.26 GB   |    Зарегистрирован:  1 год 2 месяца   |    Скачан:  0 раз

Полного источника не было: Никогда

 
   
 
 
 

[Цитировать]

Мауриц Эшер. Закончить незаконченное
Achever l'inachevable / Achieving the Unachievable- Страна: Канада
Жанр: креативная документалистика, авангард, история искусств
Год выпуска: 2007
Продолжительность: 00:51:58
Перевод: Субтитры (перевод И. Рыбкиной, Éclair Group)
Cубтитры: русские
Оригинальная аудиодорожка: французский
Режиссер: Жан Бержерон / Jean Bergeron
В ролях: Дени Аркан / Denys Arcand, Франсуа Бержерон / François Bergeron, Серж Фьори / Serge Fiori
Описание: Фильм расскажет о литографии художника Маурица Эшера / Maurits Cornelis Escher (1898-1972) "Выставка гравюр / Print gallery" (1956). Говорят, что один рисунок стоит тысячи слов. А как быть с рисунком, который интригует многие поколения любителей искусства? Рисунок, чей скрытый смысл можно постичь лишь при помощи технологий, не существовавших при жизни художника. Этот рисунок с первого взгляда кажется обычным. В центре его – пустота. Цветовая гамма – черно-белая. Но сила его воздействия велика. Благодаря ему мы понимаем, что искусство и наука – две стороны одной медали. (из предисловия к фильму)
Вход справа внизу ведет на выставку – в галерею с экспозицией гравюр на стенах и в застекленных витрах. Мы минуем посетителя, заложившего руки за спину, а затем – юношу (слева внизу), который по крайней мере в четыре раза крупнее того, первого. Даже голова у него увеличена в объеме по сравнению с его правой рукой. На стене перед ним – последний лист графической серии, и он пристально разглядывает пароход, лодки, воду канала и дома на заднем плане. Затем его взгляд переходит слева направо, к многоярусному жилому массиву. Открытое окно, из которого выглядывает женщина, выходит прямо на покатую крышу выставочной галереи, и это возвращает нас к месту, откуда началось путешествие. Юноша воспринимает это как двухмерные детали рассматриваемой литографии. Если его глаза захватят еще больше пространства, ему покажется, что он вошел в мир графического листа. (из дневника "Желтая комната" Darely)
Доп. информация: Собственная запись со спутника (канал TV5MONDE). В данном релизе русские субтитры (проф. перевод компании Éclair Group для канала TV5MONDE).
Награды: награда за визуальные эффекты 3rd Bangkok Science Film Festival 2007; 2 награды Magnolia Award - Shanghai International TV Festival 2008 (лучший документальный фильм, Специальный приз жюри); приз Montréal International Festival of Films on Art 2008 за лучший канадский фильм; приз Gémeaux Awards 2009 за лучший научно-популярный фильм.
Информация: http://www.imdb.com/title/tt0973779/
Сэмпл: http://multi-up.com/824079
Качество видео: DVB
Формат видео: MPEG-PS
Видео: MPEG Video 2, 720x576@1024x576 (16:9), 25 fps, ~3211 kbps avg, 0.310 bit/pixel
Аудио: Французский (48 kHz, MPEG Audio 2, 2 ch, ~192.00 kbps avg)
Формат субтитров: hardsub (неотключаемые)

MediaInfo

Полное имя : H:\My Torrents\[apreder]Achever_l'inachevable(2007)DVB.mpgФормат : MPEG-PSРазмер файла : 1,26 ГбайтПродолжительность : 51 м.Режим общего битрейта : ПеременныйОбщий поток : 3472 Кбит/сек
ВидеоИдентификатор : 224 (0xE0)Формат : MPEG VideoВерсия формата : Version 2Профиль формата : Main@MainПараметр BVOP формата : ДаПараметр матрицы формата : ВыборочнаяПродолжительность : 51 м.Вид битрейта : ПеременныйБитрейт : 3211 Кбит/секШирина : 720 пикселейВысота : 576 пикселейСоотношение сторон : 16:9Частота кадров : 25,000 кадров/секСтандарт вещания : PALЦветовое пространство : YUVСубдискретизация насыщенности : 4:2:0Битовая глубина : 8 битМетод сжатия : С потерямиБит/(Пиксели*Кадры) : 0.310Размер потока : 1,17 Гбайт (92%)
АудиоИдентификатор : 192 (0xC0)Формат : MPEG AudioВерсия формата : Version 1Профиль формата : Layer 2Продолжительность : 51 м.Вид битрейта : ПостоянныйБитрейт : 192 Кбит/секКаналы : 2 каналаЧастота : 48,0 КГцМетод сжатия : С потерямиРазмер потока : 71,4 Мбайт (6%)

Скриншоты


Скриншоты анаморфированные


-583/565√
[teatrix.ru].t4540.torrent 
Торрент: Зарегистрирован [ 2015-10-08 00:27 ] · E1AAE52E2A5C2CDD9D581B09FE569C2EEBA2FFFF

Скачать .torrent

Скачать

13 KB

Статус: проверено
Скачан: 0 раз
Размер: 1.26 GB
terms.php



Быстрый ответ

Имя:

      
Для отправки сообщений необходимо включить JavaScript
Показать сообщения:    

Текущее время: 11-Дек 15:00

Часовой пояс: UTC + 3


Вы можете начинать темы
Вы можете отвечать на сообщения
Вы не можете редактировать свои сообщения
Вы не можете удалять свои сообщения
Вы не можете голосовать в опросах
Вы не можете прикреплять файлы к сообщениям
Вы можете скачивать файлы