Фламенко Фламенко / Flamenco Flamenco (Карлос Саура / Carlos Saura) [2010, Испания, Документальный, музыкальный, DVD9 (Custom)] (Margarita-Cons, Handino) Sub Rus + Sub Esp, Fra + Original Spa


 

[Цитировать]

Фламенко Фламенко / Flamenco Flamenco
Страна: Испания
Студия: CAMEO MEDIA S.L.
Жанр: Документальный, музыкальный
Год выпуска: 2010
Продолжительность: 01:36:20
Перевод: Субтитры (Margarita-Cons, Handino)
Cубтитры: испанские, русские, французские
Оригинальная аудиодорожка: испанская
Режиссер: Карлос Саура / Carlos SauraВ ролях: Пако де Лусия / Paco de Lucía, Маноло Санлукар / Manolo Sanlúcar /, Хосе Мерсе / José Mercé, Сара Барас / Sara Baras, Эва Ла Йербабуэна / Eva la Yerbabuena, Эстрейа Моренте / Estrella Morente, Монтсе Кортес / Montse Cortés, Диего дель Морао / Diego del Morao, Мигель Поведа / Miguel Poveda, Давид Дорантес / David Dorantes, Диего Амадор / Diego Amador, Росио Молина / Rocío Molina, Мария Бала / María Bala, Израэль Гальван / Israel Galván, Аркангель / Arcángel, Эль Карпета / El Carpeta, Томатито / Tomatito, Мораито Чико / Moraíto Chico, Хосеми / Josemi, Нинья Пастори / Niña Pastori, Фаррукито / Farruquito, Мария Анхелес Фернандес / María Ángeles Fernández, Карлос Гарсия / Carlos García, Ла Тана / La Tana и другиеОписание: Шестнадцать лет назад вышел в свет фильм "Фламенко", в котором были показаны песни, танцы и музыка этого очаровательного, завораживающего искусства, фильм, который вошёл в историю классики музыкального кино.
"Фламенко, Фламенко" может считаться индивидуальным максимальным показателем особого способа реализации музыкальных фильмов Карлосом Саура, который выразил через свет и жизненный путь эволюцию пения, танцев и музыки этого очаровательного искусства, которое, по словам самого режиссёра, должно стать достоянием Человечества.
С опытом и знанием, которыми с течением времени насыщалась кинематография Карлоса Саура, мы углубляемся в пути развития настоящих талантов этого такого живого и динамического искусства, которым является фламенко, чтобы представить его новый фильм, который использует новые составные части, как в технической области, так и в повествовательной, превращая их в единое целое.
Фильм показывает, что существует самый могущественный новый фламенко, фламенко молодых талантов, которые ищут пути его развития и обновления как в Испании, так и за её пределами, хотя реальность этого искусства не может отражаться в его истинной форме без великих мастеров, живых легенд, которые являются гордостью Испании.
Этот фильм позволит зрителям всего мира снова насладиться искусством фламенко несравнимой красоты через музыку, танец и пение.

Карлос Саура раскрывает секреты “Фламенко, Фламенко”

Через шесть недель съемок в “Павильоне Будущего Экспо92” на Острове Картуха (Севилья), уже закончилась киносъемка "Фламенко, Фламенко", нового документального фильма Карлоса Саура о “глубоком искусстве” - главном герое фильма. Как только будет закончено постпроизводство этого полнометражного фильма, так называемого последователя фильмов-классики, как "Севильяны", "Фламенко" и "Иберия", он выйдет в свет, ориентировочно в сентябре 2010 года. Его главное ответственное лицо раскрыло некоторые секреты его нового кинематографического сближения к пению, игре на гитаре и танцу.
"Продемонстрировать эволюцию пения, танцев и музыки этого красивого искусства". Это главная цель Карлоса Саура во "Фламенко, Фламенко", второй части мифического "Фламенко" полнометражного фильма, съёмка которого только что была закончена и фильм сейчас вышел на стадию сборки и постпроизводства.
В течение шести недель съёмок, и при неоценимым сотрудничестве Витторио Стораро - ведущего телеоператора и Исидро Муньоса - музыкального советника, перед камерами арагонского кинематографиста прошли артисты, которые представляют находку и будущее фламенко. Новые таланты, как Мигель Поведа, Исраэль Гальван, Диего Амадор, Дорантес, Росио Молина, Фаррукито, Ева Йербабуена, Архангел…; и артисты, очень посвященные как Сара Барас.
В проекте участвует также Нинья Пастори, которая, вместе с Томатито, исполняет "Легенду времени / La leyenda del tiempo " Камарона де ла Исла. Этим Карлос Саура отдаёт " очень справедливое почитание тому, кто так много внёс во фламенко".
Также выделяется присутствие маэстро Пако де Лусия, который сыграет по случаю "неопубликованную солеá", по словам режиссёра. Пако де Лусия и Маноло Санлукар принадлежат к той немногочисленной группе артистов, которые участвовали во "Фламенко" 15 лет назад.
Выбор участников был без сомнения одним из самых сложных заданий, по словам самого Карлоса Саура. "Есть множество удивительных талантов. Есть самое могущественное соцветие фламенко в Андалусии. Из-за этого, выбор артистов для фильма был очень сложным и сделать его было не просто", уверяет он.
Жизнь и искусство
Аргументированная линия "Фламенко, Фламенко" - путь по жизненному циклу человека через музыку. Этой идеей, арагонский кинематографист ассоциирует стили фламенко с различными жизненными этапами: колыбель фламенко (“нáна фламенко”) - с рождением; детство – с андалусской музыкой, пакистанской музыкой и т.д.; отрочество - самые “чистые” стили; зрелый возраст - серьёзное пение; смерть - чистые чувства. Цикл, который заканчивается возрождением, основанным на проектах будущего, которые предлагают новые исполнители.
Со своей стороны для декораций "Фламенко, Фламенко" мы использовали большие панели с 40 копиями различных картин, большинство их них - с типично андалусскими сценами, среди которых выделяются шесть полотен Хулио Ромеро де Торреса. Если во "Фламенко "декорации почти абстрактные" ограничивалась панелями нейтральных цветов, здесь мы выбрали "стиль барокко, живописный и смелый". Эстетика уменьшается, кроме того, ночью, "среда, в которой, по словам Карлоса Саура, и развивался мир фламенко".
Источник: esflamenco.com
Перевод с испанского - Handino

“Фламенко, Фламенко“ словами Карлоса Саура

Всегда сложно представить что-то написанное, где содержатся идеи, которые дают мне импульс во время планирования моих музыкальных фильмов.
Сложно, потому что сами сценарии, которые я использую, едва ли состоят из трёх или четырёх страниц, на которых упорядочены различные отобранные номера, цитаты артистов и очень поверхностное представление о дальнейшем развитии событий; и ещё гораздо сложнее, потому что это исходит из стимула, и зачем отрицать то, что развлечение, с которым я всегда ассоциирую эти съемки, точно основывается на способности к импровизации, которую этот тип кино предлагает мне.
Первым делом нужно было подобрать артистов, которые будут участвовать в фильме. Очевидно, я не считаю себя достаточно опытным, чтобы справиться с таким весомым и ответственным заданием по определению драматургии фильма, без помощи великолепного советника Исидро Муньоса, брата Маноло Санлукара.
Мы оба соглашаемся с тем, что существует самое могущественное новое фламенко, фламенко молодых талантов, которые ищут свои пути развития как в нашей стране, так и за её пределами, и что нужно представить многих из них, как внутри самой чистой классики фламенко, так и через те экспериментальные новые пути слияния фламенко с другими типами музыки.
И также мы соглашаемся с тем, что реальность этого искусства не может отражаться в его истинной форме без великих мастеров, живых легенд, которые являются гордостью Испании. Поэтому, нашей первой задачей была задача "разместить" внутри различных стилей фламенко знаменитых известных артистов, которые составляют часть истории фламенко (Пако де Лусия, Маноло Санлукар, Хосе Мерсе...), беседую лично с каждым из них и, с одной стороны, прислушиваясь к тому, что предлагали они нам на выбор для фильма с их перспективами, и с другой стороны, предлагая им альтернативы, которые, вероятно, они сами не решились опробовать до сих пор, и которые могли соответствовать их интересам.
Эта группа великих мастеров - это те, кто начали формировать "центральную ось" музыкальной структуры фильма; вид ствола центрального дерева на котором держалось всё то, что приходило позже: вклад самых молодых артистов, которые не принимали участие в предыдущем фильме.
И таким образом, список очень, ну очень интересный: Эстрелья Моренте, Сара Барас, Мигель Поведа, Исраэль Гальван, Ева ла Ербабуена... Столько талантов!
Как я уже сказал ранее, мне нравится держать открытым "конечный сценарий"; по крайней мере, для того, чтобы совместно с моими сотрудниками увидеть репетицию танцев, которые нам представляют артисты, или услышать наброски пения.
Но мой опыт подсказывает, что ограничиваться тем, чтобы просто привести в порядок номера обычной штамповкой, выбирая среди более "твердых" и более "лёгких", или по блокам среди того, что уже напето, или среди того, что уже станцовано, или музыкальными блоками, или по любой другой формуле - бесполезное дело, которое заканчивается всегда тем, что спектакль просто проваливается, и никто не сумеет объяснить причину этому.
Ясно, что здесь, и из-за нашего собственного решения, у нас не было какой-либо выдуманной истории, на которую мы могли опереться, чтобы отработать драматический момент и найти возможную причину этого "падения". Но дело в том, как мне кажется, вводить что-то больше, чем красота музыки и танца перед камерой: это измена чистоте этого искусства!
Поэтому, я высказал Исидро свою идею о том, что нужно придерживаться двух повествовательных элементов, отличающихся от обычных, которые послужили бы опорой в музыкальных номерах и позволили бы нам обладать "подсознательной связью" со зрителем, в то время когда эти элементы будут развивается.
Это - жизненный путь и … свет.
Первый, жизненный путь, проходит через музыку - цикл жизни человека. И чтобы достичь его, мы используем творчески стили фламенко: он начинается с рождения (“нана” фламенко – колыбель фламенко), детство (влияния: музыка андалусская, пакистанская, смесь и обогащение), подростковый возраст (стили самые твёрдые и жизненные), зрелый возраст (серьёзное пение), "смерть" (глубокая зона, чистое чувство), чтобы закончить новым возрождением, основанным на проектах будущего, которые нам предлагают молодые исполнители.
На этом пути, гранды (Пако де Лусиа, Маноло Санлукар...), аккомпанируют новым талантам, своего рода презентация, и как бы "передача смены", передача творческой неразрывности, для того чтобы поддерживалось живое пламя будущего.
Второй элемент - свет (несомненно, пересекается с предыдущим), поддерживает его, пробегая, по основным цветовым спектрам.
Так, рождение окутано в белые цвета сильного вечернего света; детство сопровождается желтоватыми тонами низкого солнца, продолговатыми тенями и временами жизни на улице. Подростковый возраст представляется нам в вечерние часы (оранжевые и синие мягкие тона), свет и время жизни, встреч, дворы домов... И прогрессивно, углубляясь в взрослый возраст, появляются синие интенсивные, индиго и фиолетовый цвет. Зона "смерти" (поймите правильно, это не какой-то конкретный факт, а как пространство серьёзности, неприкосновенности и сосредоточенности) - практически черно-белая, появляющаяся в зелени надежды, цвет, который ведёт нас к новому возрождению, к зоне духа, отмеченной изумрудными, бледно-синими тонами и гаммой апельсина, красноватого сильного компонента, в красновато - оранжевом свете – наше окончание.
Эти два повествовательных элемента - основа музыкального сценария, и хотя большая вероятность того, что они не будут восприняты сразу зрителем, я уверен, что они проникнут в его душу и помогут ему в продвижении по музыкальному маршруту, который мы представляем для зрителя
Carlos Saura
Источник: esflamenco.com
Перевод с испанского - Handino

Содержание и исполнители

01. “MADERA” – SEGUIRIYA
“ДЕРЕВО” – СЕГИРИЙА
Autores: Isidro Muños y Borja Muños Herrera
02. "VERDE QUE TE QUIERO VERDE" - RUMBA
"Я ЛЮБЛЮ ТЕБЯ, ЦВЕТ ЗЕЛЁНЫЙ" - РУМБА
Carlos García, Cantaor.
María Ángeles Fernández, Cantaora.
Josemi Carmona, Guitarrista.
Manolo Nieto, Contrabajo.
Rafael Hermoso, Percusión.
Letra: Federico García Lorca
03. "A MI NIÑA SARITA" – ALEGRÍA
"МОЕЙ ДЕВОЧКЕ САРИТЕ" - АЛЕГРИЯ
Sara Baras, Bailaora.
Miguel de “La Tolea”, Cantaor.
Saul Quirós, Cantaor.
Emilio Florido, Cantaor.
José María Bandera, Guitarrista.
David Cerreruela, Guitarrista.
Mario Montoya, Guitarrista.
Antonio Suárez Salazar, Percusión.
José Amador Pablo Goñi, Violín.
Sara Baras, Coreografía
04. "JUAN MORAO" – SOLEÁ POR BULERÍAS
"ХУАН МОРАО" – СОЛЕÁ В РИТМЕ БУЛЕРИИ
Diego “El Morao”, Guitarrista.
Montse Cortés, Cantaora.
Carlos Grilo, Palmero.
Luis Peña, Palmero.
05. "DOS ALMAS" – CARTAGENERA Y BULERÍAS
"ДВЕ ДУШИ" - КАРТАХЕНЕРА И БУЛЕРИИ
David Dorantes, Piano.
Diego Amador, Piano.
06. "LA HERMOSURA DE LO EXTRAÑO" – GARROTÍN
"ПРЕЛЕСТЬ ИНОСТРАННОГО" - ГАРРОТИН
Rocío Molina, Bailaora.
Paco Cruz, Guitarrista.
Juan Antonio Suárez “Cano”, Guitarrista.
Rosario “La Tremendita”, Cantaora.
07. "ESOS 4 CAPOTES" – COPLA POR BULERÍA
"ЭТИ ЧЕТЫРЕ ПЛАЩА ТОРЕРО" – КОПЛА В РИТМЕ БУЛЕРИИ
Miguel Poveda, Cantaor.
Carlos Grilo, Palmero.
Luis Peña, Palmero.
08. LLANTO - SOLEÁ
"ПЛАЧ" - СОЛЕÁ
Eva Yerbabuena, Bailaora.
Paco Jarana, Guitarrista.
José Valencia, Cantaor.
Enrique “El Extremeño”, Cantaor.
José Luis de la Cruz, Cantaor.
Manuel José Muñoz, Percusión.
09. SAETA
САЭТА
María Bala, Cantaora.
10. "ORACIÓN DE LA VIRGEN MACARENA" – MARCHA PROCESIONAL
“МОЛИТВА ПРЕСВЯТОЙ ДЕВЕ МАКАРЕНЕ” - ПРОЦЕССИОННЫЙ МАРШ
José Enrique de la Vega, Compositor de la marcha Oración a la Virgen Macarena.
Javier Latorre, Coreografía.
Marta Nogal, Bailaora.
Mayte Beltrán, Bailaora.
Estefanía Ruiz, Bailaora.
Olga Aznar, Bailaora.
Verónica Llavero, Bailaora.
Berta Temiño, Bailaora.
11. "ALEVÁNTATE" - MARTINETE Y TONÁ
"ВСТАНЬ!" – МАРИНЕТЕ И ТОНÁ
José Mercé, Cantaor.
César Moreno El Güito, Percusión.
12. EL CARPETA - BULERÍA
ЭЛЬ КАРПЕТА - БУЛЕРИЯ
Manuel Fernández El Carpeta, Bailaor.
Antonio Zuñiga, Cantaor.
Jesús Guerrero, Guitarrista.
Mariano Heredia, Palmero.
Antonio Moreno, Palmero.
Luis Peña, Palmero.
13. SILENCIO
ТИШИНА
Israel Galván, Bailaor.
14. "AL DESPUNTAR LA MAÑANA" – GUAJIRA
"НА РАССВЕТЕ" - ГУАХИРА
Arcángel, Cantaor.
Miguel Angel Cortés, Guitarrista.
Dani de Morón, Guitarrista.
Rafael Estévez, Bailaor.
Nani Paños, Bailaor.
Patricia Guerrero, Bailaora.
15. LA DANZA DE LOS PAVOS – ALEGRÍA
"ТАНЕЦ ИНДЮКОВ" - АЛЕГРИЯ
Manolo Sanlúcar, Guitarrista.
David Carmona, Guitarrista.
Agustín Diassera, Percusión.
Tete Peña, Percusión.
Carmen Molina, Coros.
Olivia Molina, Coros.
Macarena, Coros.
16. TANGOS
ТАНГО
Estrella Morente, Cantaora.
José Carbonell Muñoz Montoyita, Guitarrista.
José Carbonell Serrano, Guitarrista.
Antonio Carbonell Muñoz, Palmero.
Ángel Gabarre Barrull, Palmero.
Pedro Gabarre Carbonell Popo, Percusión.
Enrique Morente Carbonell Kiki, Palmero.
Aurora Carbonell Muñoz, Coros.
Soleá Morente, Coros.
Victoria Carbonell, Coros.
17. EL TIEMPO
ВРЕМЯ
Javier Latorre, Coreografía.
Karen Rubio, Bailaora.
Marta Nogal, Bailaora.
Mayte Beltrán, Bailaora.
Estefanía Ruiz, Bailaora.
Olga Aznar, Bailaora.
Verónica Llavero, Bailaora.
18. "LA LEYENDA DEL TIEMPO" – BULERÍA
"ЛЕГЕНДА О ВРЕМЕНИ" - БУЛЕРИЯ
Tomatito, Guitarrista.
Niña Pastori, Cantaora.
Josemi Carmona, Guitarrista.
Paquito Torres, Percusión.
Yelsy Heredia, Contrabajo.
Ángela Bautista, Coros.
Tere Bautista, Coros.
Toñi, Coros.
Letra: Federico García Lorca
19. NANA Y CAFÉ” - CANCIÓN DE CUNA
“КОЛЫБЕЛЬНАЯ И КОФЕ” - КОЛЫБЕЛЬНАЯ ПЕСНЯ
Eva Yerbabuena, Bailaora.
Miguel Poveda, Cantaor.
Paco Jarana, Guitarrista.
Manuel José Muñoz, Palmero.
20. LLUVIA DE ILUSIÓN - ZAPATEADO
"ПРИЗРАЧНЫЙ ДОЖДЬ" - САПАТЕАДО
Farruquito, Bailaor.
Román Vicenti, Guitarrista.
Antonio Rey, Guitarrista.
Juan Requena, Guitarrista.
Isidro Suárez, Percusión.
Pedro Heredia, Coros.
Antonio Flores Cortés, Coros.
Juan José Amador, Coros.
Antonio Zuñiga, Coros.
Encarnita Anillo, Coros.
Mara Rey, Coros.
Ana Mª Vizárraga, Coros.
Bernardo Parrilla, Violín.
Jaime Calabuig “Yumitus”, Teclado.
21. "ANTONIA" – BULERÍA POR SOLEÁ
"АНТОНИА" – БУЛЕРИЯ В РИТМЕ СОЛЕА
Paco de Lucía, Guitarrista.
“La Tana”, Cantaora.
Quique Maya, Percusión.
“La Juli”, Coros.
“El Nano”, Coros.
Amalia Alvero, Coros.
José Silva, Coros.
22. BULERÍA DE JEREZ
БУЛЕРИЯ ХЕРЕСА
Luis Fernández El Zambo, Cantaor.
Jesús Méndez, Cantaor.
Manuel “El Morao”, Guitarra.
Carlos Grilo, Palmero.
Luis Peña, Palmero.
“Bobote”, Palmero.
“Bo”, Palmero.
“Chícharo”, Palmero.
“Yoya”, Bailaora.
“Curra”, Bailaora.
“La Junquerita”, Bailaora.
Peña Flamenca “Tío José de Pablo”.
- -Доп. информация:
Исходный DVD-диск из собственной коллекции.Изменения, внесённые в диск:
Удалены разделы, содержащие рекламу фильмов, диск собран заново, сценарий воспроизведения фильма полностью перепрограммирован, из 6 разделов VTS остались два. Аудио и видео потоки фильма и доп. материалов - без изменений, как в исходнике. Главное меню пересобрано и пересжато.
Добавлены испанские, русские, французские субтитры и меню выбора субтитров. В главное меню добавлен пункт “Subtítulos” (“Субтитры”), удалён пункт “Recomendamos” (“Мы рекомендуем”).
О переводе
Исходные тексты песен на испанском языке взяты с сайта официального дистрибьютора этого фильма во Франции студии Bodega Films, французские субтитры - с французской версии фильма (скачаны с сети). Перевод исполняемых песен выполнен с испанского языка.
В тех местах, где удалось найти ошибки в исходных испанских текстах – исправили. Французский перевод остался без изменений, с некоторым добавлением пропущенных повторяющихся фрагментов (автор перевода на французский - Evelyne Codazzi (YLF-vertalingen)).

MediaInfo исходника

Общее
Полное имя : J:\VIDEO_TS\VIDEO_TS.BUP
Формат : DVD Video
Профиль формата : Menu
Размер файла : 18,0 Кбайт
Видео
Идентификатор : 224 (0xE0)
Формат : MPEG Video
Версия формата : Version 2
Вид битрейта : Переменный
Ширина : 720 пикселей
Высота : 576 пикселей
Соотношение сторон : 16:9
Частота кадров : 25,000 кадров/сек
Стандарт вещания : PAL
Метод сжатия : С потерями
Аудио
Формат : AC-3
Формат/Информация : Audio Coding 3
Каналы : 2 канала
Частота : 48,0 КГц
Метод сжатия : С потерями
Текст
Формат : RLE
Формат/Информация : Run-length encoding
Битовая глубина : 2 бит
Общее
Полное имя : J:\VIDEO_TS\VIDEO_TS.IFO
Формат : DVD Video
Профиль формата : Menu
Размер файла : 18,0 Кбайт
Видео
Идентификатор : 224 (0xE0)
Формат : MPEG Video
Версия формата : Version 2
Вид битрейта : Переменный
Ширина : 720 пикселей
Высота : 576 пикселей
Соотношение сторон : 16:9
Частота кадров : 25,000 кадров/сек
Стандарт вещания : PAL
Метод сжатия : С потерями
Аудио
Формат : AC-3
Формат/Информация : Audio Coding 3
Каналы : 2 канала
Частота : 48,0 КГц
Метод сжатия : С потерями
Текст
Формат : RLE
Формат/Информация : Run-length encoding
Битовая глубина : 2 бит
Общее
Полное имя : J:\VIDEO_TS\VIDEO_TS.VOB
Формат : MPEG-PS
Размер файла : 142 Мбайт
Продолжительность : 2 м. 0 с.
Общий поток : 9932 Кбит/сек
Библиотека кодирования : encoded by TMPGEnc 3.0 XPress Version. 3.1.5.82
Видео
Идентификатор : 224 (0xE0)
Формат : MPEG Video
Версия формата : Version 2
Профиль формата : Main@Main
Параметр BVOP формата : Да
Параметр матрицы формата : Выборочная
Параметр GOP формата : M=3, N=12
Продолжительность : 2 м. 0 с.
Битрейт : 9542 Кбит/сек
Максимальный битрейт : 6500 Кбит/сек
Ширина : 720 пикселей
Высота : 576 пикселей
Соотношение сторон : 16:9
Частота кадров : 25,000 кадров/сек
Стандарт вещания : PAL
Цветовое пространство : YUV
Субдискретизация насыщенности : 4:2:0
Битовая глубина : 8 бит
Тип развёртки : Чересстрочная
Порядок развёртки : Верхнее поле первое
Метод сжатия : С потерями
Бит/(Пиксели*Кадры) : 0.920
Размер потока : 137 Мбайт (96%)
Библиотека кодирования : TMPGEnc 3.0 XPress Version. 3.1.5.82
Аудио
Идентификатор : 189 (0xBD)-128 (0x80)
Формат : AC-3
Формат/Информация : Audio Coding 3
Расширение режима : CM (complete main)
Режим смешивания : DVD-Video
Продолжительность : 2 м. 0 с.
Вид битрейта : Постоянный
Битрейт : 192 Кбит/сек
Каналы : 2 канала
Расположение каналов : Front: L R
Частота : 48,0 КГц
Битовая глубина : 16 бит
Метод сжатия : С потерями
Размер потока : 2,75 Мбайт (2%)
Текст #1
Идентификатор : 189 (0xBD)-32 (0x20)
Формат : RLE
Формат/Информация : Run-length encoding
Режим смешивания : DVD-Video
Задержка видео : 4 с. 240 мс.
Текст #2
Идентификатор : 189 (0xBD)-33 (0x21)
Формат : RLE
Формат/Информация : Run-length encoding
Режим смешивания : DVD-Video
Задержка видео : 4 с. 240 мс.
Меню
Общее
Полное имя : J:\VIDEO_TS\VTS_01_0.BUP
Формат : DVD Video
Профиль формата : Program
Размер файла : 72,0 Кбайт
Продолжительность : 1 ч. 36 м.
Общий поток : 102 бит/сек
Видео
Идентификатор : 224 (0xE0)
Формат : MPEG Video
Версия формата : Version 2
Продолжительность : 1 ч. 36 м.
Вид битрейта : Переменный
Ширина : 720 пикселей
Высота : 576 пикселей
Соотношение сторон : 16:9
Частота кадров : 25,000 кадров/сек
Стандарт вещания : PAL
Метод сжатия : С потерями
Аудио #1
Идентификатор : 128 (0x80)
Формат : AC-3
Формат/Информация : Audio Coding 3
Продолжительность : 1 ч. 36 м.
Каналы : 6 каналов
Частота : 48,0 КГц
Метод сжатия : С потерями
Язык : Spanish
Аудио #2
Идентификатор : 129 (0x81)
Формат : AC-3
Формат/Информация : Audio Coding 3
Продолжительность : 1 ч. 36 м.
Каналы : 2 канала
Частота : 48,0 КГц
Метод сжатия : С потерями
Язык : Spanish
Меню
Продолжительность : 1 ч. 36 м.
00:00:00.000 : Chapter 1
00:02:45.120 : Chapter 2
00:05:13.080 : Chapter 3
00:10:31.720 : Chapter 4
00:14:10.680 : Chapter 5
00:19:02.120 : Chapter 6
00:23:28.560 : Chapter 7
00:26:45.720 : Chapter 8
00:31:16.800 : Chapter 9
00:33:09.120 : Chapter 10
00:36:04.720 : Chapter 11
00:39:03.360 : Chapter 12
00:41:07.200 : Chapter 13
00:46:22.320 : Chapter 14
00:50:27.120 : Chapter 15
00:54:54.800 : Chapter 16
00:59:53.880 : Chapter 17
01:04:16.720 : Chapter 18
01:08:04.880 : Chapter 19
01:13:04.080 : Chapter 20
01:19:16.360 : Chapter 21
01:26:15.440 : Chapter 22
List (Audio) : 0 / 1
Общее
Полное имя : J:\VIDEO_TS\VTS_01_0.IFO
Формат : DVD Video
Профиль формата : Program
Размер файла : 72,0 Кбайт
Продолжительность : 1 ч. 36 м.
Общий поток : 102 бит/сек
Видео
Идентификатор : 224 (0xE0)
Формат : MPEG Video
Версия формата : Version 2
Продолжительность : 1 ч. 36 м.
Вид битрейта : Переменный
Ширина : 720 пикселей
Высота : 576 пикселей
Соотношение сторон : 16:9
Частота кадров : 25,000 кадров/сек
Стандарт вещания : PAL
Метод сжатия : С потерями
Аудио #1
Идентификатор : 128 (0x80)
Формат : AC-3
Формат/Информация : Audio Coding 3
Продолжительность : 1 ч. 36 м.
Каналы : 6 каналов
Частота : 48,0 КГц
Метод сжатия : С потерями
Язык : Spanish
Аудио #2
Идентификатор : 129 (0x81)
Формат : AC-3
Формат/Информация : Audio Coding 3
Продолжительность : 1 ч. 36 м.
Каналы : 2 канала
Частота : 48,0 КГц
Метод сжатия : С потерями
Язык : Spanish
Меню
Продолжительность : 1 ч. 36 м.
00:00:00.000 : Chapter 1
00:02:45.120 : Chapter 2
00:05:13.080 : Chapter 3
00:10:31.720 : Chapter 4
00:14:10.680 : Chapter 5
00:19:02.120 : Chapter 6
00:23:28.560 : Chapter 7
00:26:45.720 : Chapter 8
00:31:16.800 : Chapter 9
00:33:09.120 : Chapter 10
00:36:04.720 : Chapter 11
00:39:03.360 : Chapter 12
00:41:07.200 : Chapter 13
00:46:22.320 : Chapter 14
00:50:27.120 : Chapter 15
00:54:54.800 : Chapter 16
00:59:53.880 : Chapter 17
01:04:16.720 : Chapter 18
01:08:04.880 : Chapter 19
01:13:04.080 : Chapter 20
01:19:16.360 : Chapter 21
01:26:15.440 : Chapter 22
List (Audio) : 0 / 1
Общее
Полное имя : J:\VIDEO_TS\VTS_01_0.VOB
Формат : MPEG-PS
Размер файла : 3,83 Мбайт
Продолжительность : 40 с.
Общий поток : 802 Кбит/сек
Видео
Идентификатор : 224 (0xE0)
Формат : MPEG Video
Версия формата : Version 2
Профиль формата : Main@Main
Параметр BVOP формата : Нет
Параметр матрицы формата : Выборочная
Параметр GOP формата : N=1
Продолжительность : 89 мс.
Битрейт : 594 Кбит/сек
Максимальный битрейт : 8000 Кбит/сек
Ширина : 720 пикселей
Высота : 576 пикселей
Соотношение сторон : 16:9
Частота кадров : 25,000 кадров/сек
Стандарт вещания : PAL
Цветовое пространство : YUV
Субдискретизация насыщенности : 4:2:0
Битовая глубина : 8 бит
Тип развёртки : Прогрессивная
Порядок развёртки : Верхнее поле первое
Метод сжатия : С потерями
Бит/(Пиксели*Кадры) : 0.057
Размер потока : 6,45 Кбайт (0%)
Аудио
Идентификатор : 189 (0xBD)-128 (0x80)
Формат : AC-3
Формат/Информация : Audio Coding 3
Расширение режима : CM (complete main)
Режим смешивания : DVD-Video
Продолжительность : 40 с.
Вид битрейта : Постоянный
Битрейт : 192 Кбит/сек
Каналы : 2 канала
Расположение каналов : Front: L R
Частота : 48,0 КГц
Битовая глубина : 16 бит
Метод сжатия : С потерями
Задержка видео : 50 мс.
Размер потока : 939 Кбайт (24%)
Текст #1
Идентификатор : 189 (0xBD)-32 (0x20)
Формат : RLE
Формат/Информация : Run-length encoding
Режим смешивания : DVD-Video
Продолжительность : 49 мс.
Текст #2
Идентификатор : 189 (0xBD)-33 (0x21)
Формат : RLE
Формат/Информация : Run-length encoding
Режим смешивания : DVD-Video
Продолжительность : 49 мс.
Меню
Общее
Полное имя : J:\VIDEO_TS\VTS_01_1.VOB
Формат : MPEG-PS
Размер файла : 1024 Мбайт
Продолжительность : 18 м.
Общий поток : 7933 Кбит/сек
Видео
Идентификатор : 224 (0xE0)
Формат : MPEG Video
Версия формата : Version 2
Профиль формата : Main@Main
Параметр BVOP формата : Да
Параметр матрицы формата : По умолчанию
Параметр GOP формата : M=3, N=12
Продолжительность : 18 м.
Вид битрейта : Переменный
Битрейт : 7135 Кбит/сек
Максимальный битрейт : 9100 Кбит/сек
Ширина : 720 пикселей
Высота : 576 пикселей
Соотношение сторон : 16:9
Частота кадров : 25,000 кадров/сек
Стандарт вещания : PAL
Цветовое пространство : YUV
Субдискретизация насыщенности : 4:2:0
Битовая глубина : 8 бит
Тип развёртки : Чересстрочная
Порядок развёртки : Верхнее поле первое
Метод сжатия : С потерями
Бит/(Пиксели*Кадры) : 0.688
Размер потока : 921 Мбайт (90%)
Аудио #1
Идентификатор : 189 (0xBD)-128 (0x80)
Формат : AC-3
Формат/Информация : Audio Coding 3
Расширение режима : CM (complete main)
Режим смешивания : DVD-Video
Продолжительность : 18 м.
Вид битрейта : Постоянный
Битрейт : 448 Кбит/сек
Каналы : 6 каналов
Расположение каналов : Front: L C R, Side: L R, LFE
Частота : 48,0 КГц
Битовая глубина : 16 бит
Метод сжатия : С потерями
Задержка видео : 40 мс.
Размер потока : 57,8 Мбайт (6%)
Аудио #2
Идентификатор : 189 (0xBD)-129 (0x81)
Формат : AC-3
Формат/Информация : Audio Coding 3
Расширение режима : CM (complete main)
Режим смешивания : DVD-Video
Продолжительность : 18 м.
Вид битрейта : Постоянный
Битрейт : 192 Кбит/сек
Каналы : 2 канала
Расположение каналов : Front: L R
Частота : 48,0 КГц
Битовая глубина : 16 бит
Метод сжатия : С потерями
Задержка видео : 40 мс.
Размер потока : 24,8 Мбайт (2%)
Меню
Общее
Полное имя : J:\VIDEO_TS\VTS_01_2.VOB
Формат : MPEG-PS
Размер файла : 1024 Мбайт
Продолжительность : 20 м.
Общий поток : 7136 Кбит/сек
Видео
Идентификатор : 224 (0xE0)
Формат : MPEG Video
Версия формата : Version 2
Профиль формата : Main@Main
Параметр BVOP формата : Да
Параметр матрицы формата : По умолчанию
Параметр GOP формата : M=3, N=12
Продолжительность : 20 м.
Вид битрейта : Переменный
Битрейт : 6354 Кбит/сек
Максимальный битрейт : 9100 Кбит/сек
Ширина : 720 пикселей
Высота : 576 пикселей
Соотношение сторон : 16:9
Частота кадров : 25,000 кадров/сек
Стандарт вещания : PAL
Цветовое пространство : YUV
Субдискретизация насыщенности : 4:2:0
Битовая глубина : 8 бит
Тип развёртки : Чересстрочная
Порядок развёртки : Верхнее поле первое
Метод сжатия : С потерями
Бит/(Пиксели*Кадры) : 0.613
Размер потока : 912 Мбайт (89%)
Аудио #1
Идентификатор : 189 (0xBD)-128 (0x80)
Формат : AC-3
Формат/Информация : Audio Coding 3
Расширение режима : CM (complete main)
Режим смешивания : DVD-Video
Продолжительность : 20 м.
Вид битрейта : Постоянный
Битрейт : 448 Кбит/сек
Каналы : 6 каналов
Расположение каналов : Front: L C R, Side: L R, LFE
Частота : 48,0 КГц
Битовая глубина : 16 бит
Метод сжатия : С потерями
Задержка видео : -192 мс.
Размер потока : 64,3 Мбайт (6%)
Аудио #2
Идентификатор : 189 (0xBD)-129 (0x81)
Формат : AC-3
Формат/Информация : Audio Coding 3
Расширение режима : CM (complete main)
Режим смешивания : DVD-Video
Продолжительность : 20 м.
Вид битрейта : Постоянный
Битрейт : 192 Кбит/сек
Каналы : 2 канала
Расположение каналов : Front: L R
Частота : 48,0 КГц
Битовая глубина : 16 бит
Метод сжатия : С потерями
Задержка видео : -96 мс.
Размер потока : 27,5 Мбайт (3%)
Меню
Общее
Полное имя : J:\VIDEO_TS\VTS_01_3.VOB
Формат : MPEG-PS
Размер файла : 1023 Мбайт
Продолжительность : 18 м.
Общий поток : 7883 Кбит/сек
Видео
Идентификатор : 224 (0xE0)
Формат : MPEG Video
Версия формата : Version 2
Профиль формата : Main@Main
Параметр BVOP формата : Да
Параметр матрицы формата : По умолчанию
Параметр GOP формата : M=3, N=12
Продолжительность : 18 м.
Вид битрейта : Переменный
Битрейт : 7086 Кбит/сек
Максимальный битрейт : 9100 Кбит/сек
Ширина : 720 пикселей
Высота : 576 пикселей
Соотношение сторон : 16:9
Частота кадров : 25,000 кадров/сек
Стандарт вещания : PAL
Цветовое пространство : YUV
Субдискретизация насыщенности : 4:2:0
Битовая глубина : 8 бит
Тип развёртки : Чересстрочная
Порядок развёртки : Верхнее поле первое
Метод сжатия : С потерями
Бит/(Пиксели*Кадры) : 0.683
Размер потока : 920 Мбайт (90%)
Аудио #1
Идентификатор : 189 (0xBD)-128 (0x80)
Формат : AC-3
Формат/Информация : Audio Coding 3
Расширение режима : CM (complete main)
Режим смешивания : DVD-Video
Продолжительность : 18 м.
Вид битрейта : Постоянный
Битрейт : 448 Кбит/сек
Каналы : 6 каналов
Расположение каналов : Front: L C R, Side: L R, LFE
Частота : 48,0 КГц
Битовая глубина : 16 бит
Метод сжатия : С потерями
Задержка видео : -184 мс.
Размер потока : 58,2 Мбайт (6%)
Аудио #2
Идентификатор : 189 (0xBD)-129 (0x81)
Формат : AC-3
Формат/Информация : Audio Coding 3
Расширение режима : CM (complete main)
Режим смешивания : DVD-Video
Продолжительность : 18 м.
Вид битрейта : Постоянный
Битрейт : 192 Кбит/сек
Каналы : 2 канала
Расположение каналов : Front: L R
Частота : 48,0 КГц
Битовая глубина : 16 бит
Метод сжатия : С потерями
Задержка видео : -120 мс.
Размер потока : 24,9 Мбайт (2%)
Меню
Общее
Полное имя : J:\VIDEO_TS\VTS_01_4.VOB
Формат : MPEG-PS
Размер файла : 1024 Мбайт
Продолжительность : 15 м.
Общий поток : 9339 Кбит/сек
Видео
Идентификатор : 224 (0xE0)
Формат : MPEG Video
Версия формата : Version 2
Профиль формата : Main@Main
Параметр BVOP формата : Да
Параметр матрицы формата : По умолчанию
Параметр GOP формата : M=3, N=12
Продолжительность : 15 м.
Вид битрейта : Переменный
Битрейт : 8513 Кбит/сек
Максимальный битрейт : 9100 Кбит/сек
Ширина : 720 пикселей
Высота : 576 пикселей
Соотношение сторон : 16:9
Частота кадров : 25,000 кадров/сек
Стандарт вещания : PAL
Цветовое пространство : YUV
Субдискретизация насыщенности : 4:2:0
Битовая глубина : 8 бит
Тип развёртки : Чересстрочная
Порядок развёртки : Верхнее поле первое
Метод сжатия : С потерями
Бит/(Пиксели*Кадры) : 0.821
Размер потока : 933 Мбайт (91%)
Аудио #1
Идентификатор : 189 (0xBD)-128 (0x80)
Формат : AC-3
Формат/Информация : Audio Coding 3
Расширение режима : CM (complete main)
Режим смешивания : DVD-Video
Продолжительность : 15 м.
Вид битрейта : Постоянный
Битрейт : 448 Кбит/сек
Каналы : 6 каналов
Расположение каналов : Front: L C R, Side: L R, LFE
Частота : 48,0 КГц
Битовая глубина : 16 бит
Метод сжатия : С потерями
Задержка видео : -160 мс.
Размер потока : 49,1 Мбайт (5%)
Аудио #2
Идентификатор : 189 (0xBD)-129 (0x81)
Формат : AC-3
Формат/Информация : Audio Coding 3
Расширение режима : CM (complete main)
Режим смешивания : DVD-Video
Продолжительность : 15 м.
Вид битрейта : Постоянный
Битрейт : 192 Кбит/сек
Каналы : 2 канала
Расположение каналов : Front: L R
Частота : 48,0 КГц
Битовая глубина : 16 бит
Метод сжатия : С потерями
Задержка видео : -128 мс.
Размер потока : 21,1 Мбайт (2%)
Меню
Общее
Полное имя : J:\VIDEO_TS\VTS_01_5.VOB
Формат : MPEG-PS
Размер файла : 1024 Мбайт
Продолжительность : 15 м.
Общий поток : 9154 Кбит/сек
Видео
Идентификатор : 224 (0xE0)
Формат : MPEG Video
Версия формата : Version 2
Профиль формата : Main@Main
Параметр BVOP формата : Да
Параметр матрицы формата : По умолчанию
Параметр GOP формата : M=3, N=12
Продолжительность : 15 м.
Вид битрейта : Переменный
Битрейт : 8332 Кбит/сек
Максимальный битрейт : 9100 Кбит/сек
Ширина : 720 пикселей
Высота : 576 пикселей
Соотношение сторон : 16:9
Частота кадров : 25,000 кадров/сек
Стандарт вещания : PAL
Цветовое пространство : YUV
Субдискретизация насыщенности : 4:2:0
Битовая глубина : 8 бит
Тип развёртки : Чересстрочная
Порядок развёртки : Верхнее поле первое
Метод сжатия : С потерями
Бит/(Пиксели*Кадры) : 0.804
Размер потока : 932 Мбайт (91%)
Аудио #1
Идентификатор : 189 (0xBD)-128 (0x80)
Формат : AC-3
Формат/Информация : Audio Coding 3
Расширение режима : CM (complete main)
Режим смешивания : DVD-Video
Продолжительность : 15 м.
Вид битрейта : Постоянный
Битрейт : 448 Кбит/сек
Каналы : 6 каналов
Расположение каналов : Front: L C R, Side: L R, LFE
Частота : 48,0 КГц
Битовая глубина : 16 бит
Метод сжатия : С потерями
Задержка видео : -176 мс.
Размер потока : 50,1 Мбайт (5%)
Аудио #2
Идентификатор : 189 (0xBD)-129 (0x81)
Формат : AC-3
Формат/Информация : Audio Coding 3
Расширение режима : CM (complete main)
Режим смешивания : DVD-Video
Продолжительность : 15 м.
Вид битрейта : Постоянный
Битрейт : 192 Кбит/сек
Каналы : 2 канала
Расположение каналов : Front: L R
Частота : 48,0 КГц
Битовая глубина : 16 бит
Метод сжатия : С потерями
Задержка видео : -112 мс.
Размер потока : 21,5 Мбайт (2%)
Меню
Общее
Полное имя : J:\VIDEO_TS\VTS_01_6.VOB
Формат : MPEG-PS
Размер файла : 543 Мбайт
Продолжительность : 9 м. 2 с.
Общий поток : 8391 Кбит/сек
Видео
Идентификатор : 224 (0xE0)
Формат : MPEG Video
Версия формата : Version 2
Профиль формата : Main@Main
Параметр BVOP формата : Да
Параметр матрицы формата : По умолчанию
Параметр GOP формата : M=3, N=12
Продолжительность : 9 м. 2 с.
Вид битрейта : Переменный
Битрейт : 7584 Кбит/сек
Максимальный битрейт : 9100 Кбит/сек
Ширина : 720 пикселей
Высота : 576 пикселей
Соотношение сторон : 16:9
Частота кадров : 25,000 кадров/сек
Стандарт вещания : PAL
Цветовое пространство : YUV
Субдискретизация насыщенности : 4:2:0
Битовая глубина : 8 бит
Тип развёртки : Чересстрочная
Порядок развёртки : Верхнее поле первое
Метод сжатия : С потерями
Бит/(Пиксели*Кадры) : 0.732
Размер потока : 491 Мбайт (90%)
Аудио #1
Идентификатор : 189 (0xBD)-128 (0x80)
Формат : AC-3
Формат/Информация : Audio Coding 3
Расширение режима : CM (complete main)
Режим смешивания : DVD-Video
Продолжительность : 9 м. 2 с.
Вид битрейта : Постоянный
Битрейт : 448 Кбит/сек
Каналы : 6 каналов
Расположение каналов : Front: L C R, Side: L R, LFE
Частота : 48,0 КГц
Битовая глубина : 16 бит
Метод сжатия : С потерями
Задержка видео : -168 мс.
Размер потока : 29,0 Мбайт (5%)
Аудио #2
Идентификатор : 189 (0xBD)-129 (0x81)
Формат : AC-3
Формат/Информация : Audio Coding 3
Расширение режима : CM (complete main)
Режим смешивания : DVD-Video
Продолжительность : 9 м. 2 с.
Вид битрейта : Постоянный
Битрейт : 192 Кбит/сек
Каналы : 2 канала
Расположение каналов : Front: L R
Частота : 48,0 КГц
Битовая глубина : 16 бит
Метод сжатия : С потерями
Задержка видео : -104 мс.
Размер потока : 12,4 Мбайт (2%)
Меню
Общее
Полное имя : J:\VIDEO_TS\VTS_02_0.BUP
Формат : DVD Video
Профиль формата : Program
Размер файла : 18,0 Кбайт
Продолжительность : 17 с.
Общий поток : 8397 бит/сек
Видео
Идентификатор : 224 (0xE0)
Формат : MPEG Video
Версия формата : Version 2
Продолжительность : 17 с.
Вид битрейта : Переменный
Ширина : 720 пикселей
Высота : 576 пикселей
Соотношение сторон : 16:9
Частота кадров : 25,000 кадров/сек
Стандарт вещания : PAL
Метод сжатия : С потерями
Аудио
Идентификатор : 128 (0x80)
Формат : AC-3
Формат/Информация : Audio Coding 3
Продолжительность : 17 с.
Каналы : 6 каналов
Частота : 48,0 КГц
Метод сжатия : С потерями
Язык : Spanish
Меню #1
Продолжительность : 17 с.
00:00:00.000 : Chapter 1
List (Audio) : 0
Меню #2
Продолжительность : 5 с. 0 мс.
00:00:00.000 : Chapter 1
List (Audio) : 0
Общее
Полное имя : J:\VIDEO_TS\VTS_02_0.IFO
Формат : DVD Video
Профиль формата : Program
Размер файла : 18,0 Кбайт
Продолжительность : 17 с.
Общий поток : 8397 бит/сек
Видео
Идентификатор : 224 (0xE0)
Формат : MPEG Video
Версия формата : Version 2
Продолжительность : 17 с.
Вид битрейта : Переменный
Ширина : 720 пикселей
Высота : 576 пикселей
Соотношение сторон : 16:9
Частота кадров : 25,000 кадров/сек
Стандарт вещания : PAL
Метод сжатия : С потерями
Аудио
Идентификатор : 128 (0x80)
Формат : AC-3
Формат/Информация : Audio Coding 3
Продолжительность : 17 с.
Каналы : 6 каналов
Частота : 48,0 КГц
Метод сжатия : С потерями
Язык : Spanish
Меню #1
Продолжительность : 17 с.
00:00:00.000 : Chapter 1
List (Audio) : 0
Меню #2
Продолжительность : 5 с. 0 мс.
00:00:00.000 : Chapter 1
List (Audio) : 0
Общее
Полное имя : J:\VIDEO_TS\VTS_02_0.VOB
Формат : MPEG-PS
Размер файла : 10,0 Кбайт
Продолжительность : 40 мс.
Общий поток : 2048 Кбит/сек
Видео
Идентификатор : 224 (0xE0)
Формат : MPEG Video
Версия формата : Version 2
Профиль формата : Main@Main
Параметр BVOP формата : Нет
Параметр матрицы формата : Выборочная
Продолжительность : 40 мс.
Максимальный битрейт : 8000 Кбит/сек
Ширина : 720 пикселей
Высота : 576 пикселей
Соотношение сторон : 16:9
Частота кадров : 25,000 кадров/сек
Стандарт вещания : PAL
Цветовое пространство : YUV
Субдискретизация насыщенности : 4:2:0
Битовая глубина : 8 бит
Тип развёртки : Прогрессивная
Порядок развёртки : Верхнее поле первое
Метод сжатия : С потерями
Меню
Общее
Полное имя : J:\VIDEO_TS\VTS_02_1.VOB
Формат : MPEG-PS
Размер файла : 19,1 Мбайт
Продолжительность : 17 с.
Общий поток : 9118 Кбит/сек
Видео
Идентификатор : 224 (0xE0)
Формат : MPEG Video
Версия формата : Version 2
Профиль формата : Main@Main
Параметр BVOP формата : Да
Параметр матрицы формата : Выборочная
Продолжительность : 17 с.
Битрейт : 8489 Кбит/сек
Максимальный битрейт : 8500 Кбит/сек
Ширина : 720 пикселей
Высота : 576 пикселей
Соотношение сторон : 16:9
Частота кадров : 25,000 кадров/сек
Стандарт вещания : PAL
Цветовое пространство : YUV
Субдискретизация насыщенности : 4:2:0
Битовая глубина : 8 бит
Тип развёртки : Чересстрочная
Порядок развёртки : Верхнее поле первое
Метод сжатия : С потерями
Бит/(Пиксели*Кадры) : 0.819
Размер потока : 17,8 Мбайт (93%)
Аудио
Идентификатор : 189 (0xBD)-128 (0x80)
Формат : AC-3
Формат/Информация : Audio Coding 3
Расширение режима : CM (complete main)
Режим смешивания : DVD-Video
Продолжительность : 17 с.
Вид битрейта : Постоянный
Битрейт : 448 Кбит/сек
Каналы : 6 каналов
Расположение каналов : Front: L C R, Side: L R, LFE
Частота : 48,0 КГц
Битовая глубина : 16 бит
Метод сжатия : С потерями
Размер потока : 959 Кбайт (5%)
Меню
Общее
Полное имя : J:\VIDEO_TS\VTS_03_0.BUP
Формат : DVD Video
Профиль формата : Program
Размер файла : 18,0 Кбайт
Продолжительность : 1 с. 0 мс.
Общий поток : 147 Кбит/сек
Видео
Идентификатор : 224 (0xE0)
Формат : MPEG Video
Версия формата : Version 2
Продолжительность : 1 с. 0 мс.
Вид битрейта : Переменный
Битрейт : 135 Кбит/сек
Ширина : 720 пикселей
Высота : 576 пикселей
Соотношение сторон : 16:9
Частота кадров : 25,000 кадров/сек
Стандарт вещания : PAL
Метод сжатия : С потерями
Бит/(Пиксели*Кадры) : 0.013
Размер потока : 16,4 Кбайт (91%)
Меню
Продолжительность : 1 с. 0 мс.
00:00:00.000 : Chapter 1
Общее
Полное имя : J:\VIDEO_TS\VTS_03_0.IFO
Формат : DVD Video
Профиль формата : Program
Размер файла : 18,0 Кбайт
Продолжительность : 1 с. 0 мс.
Общий поток : 147 Кбит/сек
Видео
Идентификатор : 224 (0xE0)
Формат : MPEG Video
Версия формата : Version 2
Продолжительность : 1 с. 0 мс.
Вид битрейта : Переменный
Битрейт : 135 Кбит/сек
Ширина : 720 пикселей
Высота : 576 пикселей
Соотношение сторон : 16:9
Частота кадров : 25,000 кадров/сек
Стандарт вещания : PAL
Метод сжатия : С потерями
Бит/(Пиксели*Кадры) : 0.013
Размер потока : 16,4 Кбайт (91%)
Меню
Продолжительность : 1 с. 0 мс.
00:00:00.000 : Chapter 1
Общее
Полное имя : J:\VIDEO_TS\VTS_03_0.VOB
Формат : MPEG-PS
Размер файла : 10,0 Кбайт
Продолжительность : 40 мс.
Общий поток : 2048 Кбит/сек
Видео
Идентификатор : 224 (0xE0)
Формат : MPEG Video
Версия формата : Version 2
Профиль формата : Main@Main
Параметр BVOP формата : Нет
Параметр матрицы формата : Выборочная
Продолжительность : 40 мс.
Максимальный битрейт : 8000 Кбит/сек
Ширина : 720 пикселей
Высота : 576 пикселей
Соотношение сторон : 16:9
Частота кадров : 25,000 кадров/сек
Стандарт вещания : PAL
Цветовое пространство : YUV
Субдискретизация насыщенности : 4:2:0
Битовая глубина : 8 бит
Тип развёртки : Прогрессивная
Порядок развёртки : Верхнее поле первое
Метод сжатия : С потерями
Меню
Общее
Полное имя : J:\VIDEO_TS\VTS_03_1.VOB
Формат : MPEG-PS
Размер файла : 12,0 Кбайт
Продолжительность : 40 мс.
Общий поток : 2458 Кбит/сек
Видео
Идентификатор : 224 (0xE0)
Формат : MPEG Video
Версия формата : Version 2
Профиль формата : Main@Main
Параметр BVOP формата : Нет
Параметр матрицы формата : Выборочная
Продолжительность : 40 мс.
Максимальный битрейт : 8000 Кбит/сек
Ширина : 720 пикселей
Высота : 576 пикселей
Соотношение сторон : 16:9
Частота кадров : 25,000 кадров/сек
Стандарт вещания : PAL
Цветовое пространство : YUV
Субдискретизация насыщенности : 4:2:0
Битовая глубина : 8 бит
Тип развёртки : Прогрессивная
Порядок развёртки : Верхнее поле первое
Метод сжатия : С потерями
Меню
Общее
Полное имя : J:\VIDEO_TS\VTS_04_0.BUP
Формат : DVD Video
Профиль формата : Program
Размер файла : 18,0 Кбайт
Продолжительность : 1 м. 24 с.
Общий поток : 1739 бит/сек
Видео
Идентификатор : 224 (0xE0)
Формат : MPEG Video
Вер



Показать сообщения:    

Текущее время: 08-Дек 03:09

Часовой пояс: UTC + 3


Вы не можете начинать темы
Вы не можете отвечать на сообщения
Вы не можете редактировать свои сообщения
Вы не можете удалять свои сообщения
Вы не можете голосовать в опросах
Вы не можете прикреплять файлы к сообщениям
Вы не можете скачивать файлы