Сергей Параджанов: Я умер в детстве... (Георгий Параджанов) [2004, Россия, документальный, DVB] [фестивальная версия]


Статистика раздачи [Обновить пиров]
Размер:  1.21 GB   |    Зарегистрирован:  1 год 1 месяц   |    Скачан:  0 раз

Полного источника не было: Никогда

 
   
 
 
 

[Цитировать]

Сергей Параджанов [фестивальная версия]
Я умер в детстве…- Год выпуска: 2004
Страна: Россия
Жанр: документальный
Продолжительность: 00:50:33
Перевод: не требуется
Русские субтитры: нет
Режиссер: Георгий Параджанов
Описание: Сергей Параджанов - талантливый художник. Великий режиссер. Тарковский считал его гением, а Лиля Брик - своим близким другом. В его доме гостили Владимир Высоцкий и Франсуаза Саган, Майя Плисецкая и Марчелло Мастрояни. Ему было дано ВСЕ! Однако в этой жизни нам за все приходится платить. "Я умер в детстве…" - это фильм о расплате за гениальность. Это исповедь, которой не было.
Доп. информация: Собственная запись со спутника (канал "Кто есть кто"). Канал показал фестивальную версию фильма, приведенную к стандарту (16:9): изображение несколько сдвинуто вниз и обрезано снизу кадра. Кроме того, канал закрыл черной полосой вшитые субтитры.
Награды: Специальный почетный приз Yerevan International Film Festival 2004 за лучший документальный фильм + номинация на Гран-при Golden Apricot; Специальный приз жюри Asia-Pacific Film Festival 2004. Участник Каннского кинофестиваля 2004.
Информация: http://www.imdb.com/title/tt0424576/
Сравнение скриншотов
Сэмпл: http://multi-up.com/821970
Качество: DVB
Формат: MPEG-PS
Видео кодек: MPEG2
Аудио кодек: MP2
Видео: MPEG Video 2, 720x576@768x576 (4:3), 25 fps, ~5390 kbps avg, 0.305 bit/pixel
Аудио: 48 kHz, MPEG Audio 2, 2 ch, ~192.00 kbps avg

MediaInfo

Полное имя : H:\My Torrents\[apreder]I_Died_in_Childhood(2004)DVB.mpgФормат : MPEG-PSРазмер файла : 1,21 ГбайтПродолжительность : 50 м.Режим общего битрейта : ПеременныйОбщий поток : 3422 Кбит/сек
ВидеоИдентификатор : 224 (0xE0)Формат : MPEG VideoВерсия формата : Version 2Профиль формата : Main@MainПараметр BVOP формата : ДаПараметр матрицы формата : ВыборочнаяПродолжительность : 50 м.Вид битрейта : ПеременныйБитрейт : 3162 Кбит/секМаксимальный битрейт : 5390 Кбит/секШирина : 720 пикселейВысота : 576 пикселейСоотношение сторон : 4:3Частота кадров : 25,000 кадров/секСтандарт вещания : PALЦветовое пространство : YUVСубдискретизация насыщенности : 4:2:0Битовая глубина : 8 битТип развёртки : ЧересстрочнаяПорядок развёртки : Верхнее поле первоеМетод сжатия : С потерямиБит/(Пиксели*Кадры) : 0.305Размер потока : 1,12 Гбайт (92%)
АудиоИдентификатор : 192 (0xC0)Формат : MPEG AudioВерсия формата : Version 1Профиль формата : Layer 2Продолжительность : 50 м.Вид битрейта : ПостоянныйБитрейт : 192 Кбит/секКаналы : 2 каналаЧастота : 48,0 КГцМетод сжатия : С потерямиРазмер потока : 69,4 Мбайт (6%)

Скриншоты


Скриншоты анаморфированные


-578/560√
[teatrix.ru].t4543.torrent 
Торрент: Зарегистрирован [ 2015-10-08 00:27 ] · EE5FC17234F5061A3A84AFBAA7B09632633C36BB

Скачать .torrent

Скачать

13 KB

Статус: проверено
Скачан: 0 раз
Размер: 1.21 GB
terms.php



Быстрый ответ

Имя:

      
Для отправки сообщений необходимо включить JavaScript
Показать сообщения:    

Текущее время: 04-Дек 02:47

Часовой пояс: UTC + 3


Вы можете начинать темы
Вы можете отвечать на сообщения
Вы не можете редактировать свои сообщения
Вы не можете удалять свои сообщения
Вы не можете голосовать в опросах
Вы не можете прикреплять файлы к сообщениям
Вы можете скачивать файлы