Киногамма. Часть 1. Восток / Kinogamma Part One: East (Зигфрид / Siegfried) [2008, Франция, Документальные, Экспериментальные, DVD5] + Original Rus


Статистика раздачи [Обновить пиров]
Размер:  2.59 GB   |    Зарегистрирован:  1 год 2 месяца   |    Скачан:  0 раз

Полного источника не было: Никогда

 
   
 
 
 

[Цитировать]

Киногамма. Часть 1. Восток / Kinogamma Part One: East
Страна: Франция
Жанр: Документальные , Экспериментальные
Год выпуска: 2008
Продолжительность: 01:15:51
Перевод: Не требуется
Cубтитры: нет
Оригинальная аудиодорожка: русский
Режиссер: Зигфрид / Siegfried
В ролях: Народ
Описание: Глазами своей камеры режиссёр ведёт нас в путешествие, полное открытий: людей, мест и звуков. Фильм представляет собой художественную попытку создать вымысел, используя образы реальной жизни и монтаж.
Доп. информация:
imdb.com/title/tt1280688/ 6.4/10 from 10 users
Thx - 1987 (KG)
Тип релиза: DVD5
Контейнер: DVD-Video
Видео кодек: MPEG2
Аудио кодек: AC3
Видео: PAL 4:3 (720x576) VBR
Аудио: AC3, 2/0 (L,R) ch, 256 Kbps
Меню: Cтатичное

скрытый текст

MediaInfo

General
Complete name : /Users/mvideo/Downloads/_elevina/Kinogamma_I/VIDEO_TS/VIDEO_TS.BUP
Format : DVD Video
Format profile : Menu
File size : 12.0 KiB
Overall bit rate mode : Variable
Video
ID : 224 (0xE0)
Format : MPEG Video
Format version : Version 2
Bit rate mode : Variable
Width : 720 pixels
Height : 576 pixels
Display aspect ratio : 4:3
Frame rate : 25.000 fps
Standard : PAL
Compression mode : Lossy
Text
Format : RLE
Format/Info : Run-length encoding
Bit depth : 2 bits
General
Complete name : /Users/mvideo/Downloads/_elevina/Kinogamma_I/VIDEO_TS/VIDEO_TS.IFO
Format : DVD Video
Format profile : Menu
File size : 12.0 KiB
Overall bit rate mode : Variable
Video
ID : 224 (0xE0)
Format : MPEG Video
Format version : Version 2
Bit rate mode : Variable
Width : 720 pixels
Height : 576 pixels
Display aspect ratio : 4:3
Frame rate : 25.000 fps
Standard : PAL
Compression mode : Lossy
Text
Format : RLE
Format/Info : Run-length encoding
Bit depth : 2 bits
General
Complete name : /Users/mvideo/Downloads/_elevina/Kinogamma_I/VIDEO_TS/VIDEO_TS.VOB
Format : MPEG-PS
File size : 42.0 KiB
Duration : 40ms
Overall bit rate mode : Variable
Overall bit rate : 8 602 Kbps
Video
ID : 224 (0xE0)
Format : MPEG Video
Format version : Version 2
Format profile : Simple@Main
Format settings, BVOP : No
Format settings, Matrix : Default
Duration : 40ms
Bit rate mode : Variable
Maximum bit rate : 9 800 Kbps
Width : 720 pixels
Height : 576 pixels
Display aspect ratio : 4:3
Frame rate : 25.000 fps
Standard : PAL
Color space : YUV
Chroma subsampling : 4:2:0
Bit depth : 8 bits
Scan type : Interlaced
Scan order : Top Field First
Compression mode : Lossy
Text
ID : 189 (0xBD)-32 (0x20)
Format : RLE
Format/Info : Run-length encoding
Muxing mode : DVD-Video
Menu
General
Complete name : /Users/mvideo/Downloads/_elevina/Kinogamma_I/VIDEO_TS/VideoSpec report 2013-01-27.txt
File size : 4.77 KiB
General
Complete name : /Users/mvideo/Downloads/_elevina/Kinogamma_I/VIDEO_TS/VTS_01_0.BUP
Format : DVD Video
Format profile : Program
File size : 52.0 KiB
Duration : 1h 15mn
Overall bit rate mode : Variable
Overall bit rate : 94 bps
Video
ID : 224 (0xE0)
Format : MPEG Video
Format version : Version 2
Duration : 1h 15mn
Bit rate mode : Variable
Width : 720 pixels
Height : 576 pixels
Display aspect ratio : 4:3
Frame rate : 25.000 fps
Standard : PAL
Compression mode : Lossy
Audio
ID : 128 (0x80)
Format : AC-3
Format/Info : Audio Coding 3
Duration : 1h 15mn
Channel(s) : 2 channels
Sampling rate : 48.0 KHz
Compression mode : Lossy
Menu
Duration : 1h 15mn
00:00:00.000 : Chapter 1
00:05:48.960 : Chapter 2
00:11:52.320 : Chapter 3
00:17:56.640 : Chapter 4
00:23:33.600 : Chapter 5
00:29:41.280 : Chapter 6
00:35:45.600 : Chapter 7
00:41:54.720 : Chapter 8
00:47:38.400 : Chapter 9
00:53:46.560 : Chapter 10
00:59:54.720 : Chapter 11
01:05:26.400 : Chapter 12
01:11:35.520 : Chapter 13
List (Audio) : 0
General
Complete name : /Users/mvideo/Downloads/_elevina/Kinogamma_I/VIDEO_TS/VTS_01_0.IFO
Format : DVD Video
Format profile : Program
File size : 52.0 KiB
Duration : 1h 15mn
Overall bit rate mode : Variable
Overall bit rate : 94 bps
Video
ID : 224 (0xE0)
Format : MPEG Video
Format version : Version 2
Duration : 1h 15mn
Bit rate mode : Variable
Width : 720 pixels
Height : 576 pixels
Display aspect ratio : 4:3
Frame rate : 25.000 fps
Standard : PAL
Compression mode : Lossy
Audio
ID : 128 (0x80)
Format : AC-3
Format/Info : Audio Coding 3
Duration : 1h 15mn
Channel(s) : 2 channels
Sampling rate : 48.0 KHz
Compression mode : Lossy
Menu
Duration : 1h 15mn
00:00:00.000 : Chapter 1
00:05:48.960 : Chapter 2
00:11:52.320 : Chapter 3
00:17:56.640 : Chapter 4
00:23:33.600 : Chapter 5
00:29:41.280 : Chapter 6
00:35:45.600 : Chapter 7
00:41:54.720 : Chapter 8
00:47:38.400 : Chapter 9
00:53:46.560 : Chapter 10
00:59:54.720 : Chapter 11
01:05:26.400 : Chapter 12
01:11:35.520 : Chapter 13
List (Audio) : 0
General
Complete name : /Users/mvideo/Downloads/_elevina/Kinogamma_I/VIDEO_TS/VTS_01_1.VOB
Format : MPEG-PS
File size : 1 024 MiB
Duration : 22s 556ms
Overall bit rate mode : Variable
Overall bit rate : 381 Mbps
Video
ID : 224 (0xE0)
Format : MPEG Video
Format version : Version 2
Format profile : Main@Main
Format settings, BVOP : Yes
Format settings, Matrix : Default
Format settings, GOP : M=3, N=12
Duration : 22s 556ms
Bit rate mode : Variable
Bit rate : 373 Mbps
Maximum bit rate : 9 800 Kbps
Width : 720 pixels
Height : 576 pixels
Display aspect ratio : 4:3
Frame rate : 25.000 fps
Standard : PAL
Color space : YUV
Chroma subsampling : 4:2:0
Bit depth : 8 bits
Scan type : Interlaced
Scan order : Top Field First
Compression mode : Lossy
Bits/(Pixel*Frame) : 35.974
Stream size : 1 003 MiB (98%)
Color primaries : BT.470-2 System B, BT.470-2 System G
Transfer characteristics : BT.470-2 System B, BT.470-2 System G
Matrix coefficients : BT.470-2 System B, BT.470-2 System G
Audio
ID : 189 (0xBD)-128 (0x80)
Format : AC-3
Format/Info : Audio Coding 3
Mode extension : CM (complete main)
Format settings, Endianness : Big
Muxing mode : DVD-Video
Duration : 22s 212ms
Bit rate mode : Constant
Bit rate : 256 Kbps
Channel(s) : 2 channels
Channel positions : Front: L R
Sampling rate : 48.0 KHz
Bit depth : 16 bits
Compression mode : Lossy
Stream size : 694 KiB (0%)
Menu
General
Complete name : /Users/mvideo/Downloads/_elevina/Kinogamma_I/VIDEO_TS/VTS_01_2.VOB
Format : MPEG-PS
File size : 1 024 MiB
Duration : 10s 925ms
Overall bit rate mode : Variable
Overall bit rate : 786 Mbps
Video
ID : 224 (0xE0)
Format : MPEG Video
Format version : Version 2
Format profile : Main@Main
Format settings, BVOP : Yes
Format settings, Matrix : Default
Format settings, GOP : M=3, N=12
Duration : 10s 925ms
Bit rate mode : Variable
Bit rate : 770 Mbps
Maximum bit rate : 9 800 Kbps
Width : 720 pixels
Height : 576 pixels
Display aspect ratio : 4:3
Frame rate : 25.000 fps
Standard : PAL
Color space : YUV
Chroma subsampling : 4:2:0
Bit depth : 8 bits
Scan type : Interlaced
Scan order : Top Field First
Compression mode : Lossy
Bits/(Pixel*Frame) : 74.300
Stream size : 1 003 MiB (98%)
Color primaries : BT.470-2 System B, BT.470-2 System G
Transfer characteristics : BT.470-2 System B, BT.470-2 System G
Matrix coefficients : BT.470-2 System B, BT.470-2 System G
Audio
ID : 189 (0xBD)-128 (0x80)
Format : AC-3
Format/Info : Audio Coding 3
Mode extension : CM (complete main)
Format settings, Endianness : Big
Muxing mode : DVD-Video
Duration : 10s 925ms
Bit rate mode : Constant
Bit rate : 256 Kbps
Channel(s) : 2 channels
Channel positions : Front: L R
Sampling rate : 48.0 KHz
Bit depth : 16 bits
Compression mode : Lossy
Stream size : 341 KiB (0%)
Menu
General
Complete name : /Users/mvideo/Downloads/_elevina/Kinogamma_I/VIDEO_TS/VTS_01_3.VOB
Format : MPEG-PS
File size : 606 MiB
Duration : 40s 687ms
Overall bit rate mode : Variable
Overall bit rate : 125 Mbps
Video
ID : 224 (0xE0)
Format : MPEG Video
Format version : Version 2
Format profile : Main@Main
Format settings, BVOP : Yes
Format settings, Matrix : Default
Format settings, GOP : M=3, N=12
Duration : 39s 871ms
Bit rate mode : Variable
Bit rate : 122 Mbps
Maximum bit rate : 9 800 Kbps
Width : 720 pixels
Height : 576 pixels
Display aspect ratio : 4:3
Frame rate : 25.000 fps
Standard : PAL
Color space : YUV
Chroma subsampling : 4:2:0
Bit depth : 8 bits
Scan type : Interlaced
Scan order : Top Field First
Compression mode : Lossy
Bits/(Pixel*Frame) : 11.795
Stream size : 581 MiB (96%)
Color primaries : BT.470-2 System B, BT.470-2 System G
Transfer characteristics : BT.470-2 System B, BT.470-2 System G
Matrix coefficients : BT.470-2 System B, BT.470-2 System G
Audio
ID : 189 (0xBD)-128 (0x80)
Format : AC-3
Format/Info : Audio Coding 3
Mode extension : CM (complete main)
Format settings, Endianness : Big
Muxing mode : DVD-Video
Duration : 40s 687ms
Bit rate mode : Constant
Bit rate : 256 Kbps
Channel(s) : 2 channels
Channel positions : Front: L R
Sampling rate : 48.0 KHz
Bit depth : 16 bits
Compression mode : Lossy
Stream size : 1.24 MiB (0%)
Menu

Скриншоты









[teatrix.ru].t4544.torrent 
Торрент: Зарегистрирован [ 2015-10-08 00:27 ] · 28CBDB97028370569C4F4DF7A47F2387B12A8D45

Скачать .torrent

Скачать

27 KB

Статус: проверено
Скачан: 0 раз
Размер: 2.59 GB
terms.php



Быстрый ответ

Имя:

      
Для отправки сообщений необходимо включить JavaScript
Показать сообщения:    

Текущее время: 11-Дек 09:11

Часовой пояс: UTC + 3


Вы можете начинать темы
Вы можете отвечать на сообщения
Вы не можете редактировать свои сообщения
Вы не можете удалять свои сообщения
Вы не можете голосовать в опросах
Вы не можете прикреплять файлы к сообщениям
Вы можете скачивать файлы